<?xml version="1.0" standalone="no"?>
<!DOCTYPE svg PUBLIC "-//W3C//DTD SVG 1.1//EN" "http://www.w3.org/Graphics/SVG/1.1/DTD/svg11.dtd" >
<svg>
<metadata>
Created by FontForge 20110222 at Wed May 29 04:03:16 2013
 By Orthosie Webhosting
Copyright (c) 1990 Adobe Systems Incorporated.  All Rights Reserved.Rotis is a trademark of Agfa Corporation.
</metadata>
<defs>
<font id="RotisSansSerif" horiz-adv-x="500" >
  <font-face 
    font-family="RotisSansSerif"
    font-weight="400"
    font-stretch="normal"
    units-per-em="1000"
    panose-1="2 0 5 6 4 0 0 2 0 3"
    ascent="800"
    descent="-200"
    x-height="476"
    cap-height="690"
    bbox="-42 -238 1140 928"
    underline-thickness="50"
    underline-position="-50"
    unicode-range="U+0020-FB02"
  />
<missing-glyph horiz-adv-x="259" 
 />
    <glyph glyph-name="fi" unicode="fi" horiz-adv-x="537" 
d="M373 690h90v-90h-90v90zM384 476h68v-476h-68v476zM109 419h-81v57h81v66q0 29 7.5 56.5t25.5 48.5t48 33.5t74 12.5q26 0 45 -2.5t36 -6.5v-61q-14 5 -30.5 9t-38.5 4q-29 0 -48.5 -8t-30.5 -22t-15.5 -34t-4.5 -44v-52h136v-57h-136v-419h-68v419z" />
    <glyph glyph-name="fl" unicode="fl" horiz-adv-x="537" 
d="M384 690h68v-690h-68v690zM109 419h-81v57h81v66q0 29 7.5 56.5t25.5 48.5t48 33.5t74 12.5q26 0 45 -2.5t36 -6.5v-61q-14 5 -30.5 9t-38.5 4q-29 0 -48.5 -8t-30.5 -22t-15.5 -34t-4.5 -44v-52h136v-57h-136v-419h-68v419z" />
    <glyph glyph-name=".notdef" horiz-adv-x="259" 
 />
    <glyph glyph-name=".null" horiz-adv-x="0" 
 />
    <glyph glyph-name="nonmarkingreturn" horiz-adv-x="259" 
 />
    <glyph glyph-name="space" unicode=" " horiz-adv-x="259" 
 />
    <glyph glyph-name="space" unicode="&#xa0;" horiz-adv-x="259" 
 />
    <glyph glyph-name="dollar" unicode="$" horiz-adv-x="537" 
d="M288 35q18 1 37 9.5t34.5 24.5t26 39.5t10.5 55.5q0 33 -11 56.5t-27.5 39.5t-35.5 26t-34 16v-267zM243 622q-18 -2 -34 -11.5t-29 -25.5t-20.5 -38.5t-7.5 -49.5q0 -30 8.5 -51t22 -35t29.5 -23t31 -14v248zM243 -11q-47 2 -80 14t-55 31.5t-34 45.5t-16 55h89
q0 -36 25 -64.5t71 -35.5v284q-23 7 -53.5 15.5t-57.5 27.5t-46 52t-19 89q0 43 19 74.5t46 51.5t57.5 29.5t53.5 9.5v74h45v-74q36 0 68.5 -12t57.5 -32.5t40 -46.5t15 -53h-89q0 40 -25.5 66t-66.5 32v-264l57 -19t63.5 -31.5t51.5 -53t21 -83.5q0 -54 -19.5 -89
t-48.5 -55.5t-63 -28.5t-62 -9v-84h-45v84z" />
    <glyph glyph-name="percent" unicode="%" horiz-adv-x="815" 
d="M484 634h56l-208 -634h-56zM551 213q0 -33 3 -64.5t13 -56.5t27 -40t46 -15q28 0 45.5 15t27 40t12.5 56.5t3 64.5t-3 64.5t-12.5 56t-27 39.5t-45.5 15q-29 0 -46 -15t-27 -39.5t-13 -56t-3 -64.5zM640 -11q-44 0 -73 19t-46 50.5t-23.5 72t-6.5 82.5t6.5 82t23.5 71.5
t46 50.5t73 19t73 -19t45.5 -50.5t23 -71.5t6.5 -82t-6.5 -82.5t-23 -72t-45.5 -50.5t-73 -19zM88 422q0 -33 3.5 -64.5t13 -56.5t26.5 -40t45 -15t45.5 15t27 40t12.5 56.5t3 64.5t-3 64.5t-12.5 56t-27 39.5t-45.5 15t-45 -15t-26.5 -39.5t-13 -56t-3.5 -64.5zM176 198
q-44 0 -73 19t-45.5 50.5t-23 72t-6.5 82.5t6.5 82t23 71.5t45.5 50.5t73 19t73 -19t45.5 -50.5t23 -71.5t6.5 -82t-6.5 -82.5t-23 -72t-45.5 -50.5t-73 -19z" />
    <glyph glyph-name="ampersand" unicode="&#x26;" horiz-adv-x="648" 
d="M367 2q-23 -6 -42 -9.5t-54 -3.5q-99 0 -158 47.5t-59 142.5q0 46 12 77t30 51t38.5 30.5t37.5 15.5v2q-18 6 -37.5 15.5t-36 26t-27 42t-10.5 61.5q0 45 17.5 76.5t46 51.5t64.5 29t73 9q26 0 51.5 -4.5t50.5 -11.5v-61q-20 8 -45 14t-52 6q-20 0 -41.5 -5.5t-39 -18.5
t-29 -34.5t-11.5 -53.5q0 -60 36 -89t102 -29h170v174l68 43v-217h118v-57h-118v-197q0 -14 2.5 -28.5t10.5 -25.5t22 -18t37 -7q17 0 26 1.5t20 4.5v-56q-17 -3 -33 -5t-34 -2q-41 0 -64.5 10.5t-35.5 27.5t-15.5 38t-3.5 42v215h-183q-37 0 -62 -11.5t-40.5 -30.5
t-22.5 -43.5t-7 -50.5q0 -36 11.5 -62.5t30.5 -43.5t43.5 -25.5t50.5 -8.5q32 0 51 4.5t41 12.5v-61z" />
    <glyph glyph-name="quoteright" unicode="&#x2019;" horiz-adv-x="204" 
d="M64 690h90l-33 -215h-67z" />
    <glyph glyph-name="parenleft" unicode="(" horiz-adv-x="278" 
d="M251 -143q-68 15 -104.5 62t-53.5 111t-20 138t-3 144q0 47 1 96.5t6 97.5t16 91.5t31 78.5t51 59.5t76 32.5v-45q-37 -18 -57.5 -61t-30 -99.5t-11 -122t-1.5 -128.5t1.5 -127.5t11 -121t29.5 -99.5t58 -62v-45z" />
    <glyph glyph-name="parenright" unicode=")" horiz-adv-x="278" 
d="M27 -98q37 18 57.5 61t30 99.5t11 121.5t1.5 128t-1.5 127.5t-11 121.5t-30 100t-57.5 62v45q67 -15 104 -62t54 -111t20 -138.5t3 -144.5q0 -47 -1 -96t-6 -97t-16 -91.5t-31 -78.5t-51 -59.5t-76 -32.5v45z" />
    <glyph glyph-name="asterisk" unicode="*" horiz-adv-x="315" 
d="M62 445l35 60l21 33l-40 -3h-68v49h68l40 -3l-22 33l-34 61l44 26l35 -61l17 -36l17 36l35 61l45 -26l-35 -61l-22 -33l39 3h68v-49h-68l-39 3l22 -33l35 -60l-45 -26l-35 60l-17 34l-16 -34l-36 -60z" />
    <glyph glyph-name="plus" unicode="+" horiz-adv-x="574" 
d="M253 213h-197v61h197v196h68v-196h197v-61h-197v-213h-68v213z" />
    <glyph glyph-name="comma" unicode="," horiz-adv-x="204" 
d="M68 100h89l-35 -223h-67z" />
    <glyph glyph-name="hyphen" unicode="-" horiz-adv-x="407" 
d="M52 283h304v-68h-304v68z" />
    <glyph glyph-name="hyphen" unicode="&#xad;" horiz-adv-x="407" 
d="M52 283h304v-68h-304v68z" />
    <glyph glyph-name="period" unicode="." horiz-adv-x="204" 
d="M52 100h100v-100h-100v100z" />
    <glyph glyph-name="slash" unicode="/" horiz-adv-x="296" 
d="M207 761h72l-190 -897h-71z" />
    <glyph glyph-name="zero" unicode="0" 
d="M112 317q0 -49 5 -97.5t20 -87t42 -62.5t71 -24q45 0 72 24t41.5 62.5t19.5 87t5 97.5t-5 97.5t-19.5 87t-41.5 62.5t-72 24q-44 0 -71 -24t-42 -62.5t-20 -87t-5 -97.5zM250 -11q-65 0 -106.5 28.5t-66 74.5t-34 105t-9.5 120t9.5 120t34 105.5t66 74.5t106.5 28
q64 0 106 -28t66.5 -74.5t34 -105.5t9.5 -120t-9.5 -120t-34 -105t-66.5 -74.5t-106 -28.5z" />
    <glyph glyph-name="one" unicode="1" 
d="M246 557l-120 -81v76l131 82h64v-634h-75v557z" />
    <glyph glyph-name="two" unicode="2" 
d="M55 67q16 13 44 38t60.5 58.5t66 72.5t61 80t44.5 82.5t17 78.5q0 22 -6 42t-19 35.5t-33 24.5t-47 9q-33 0 -53.5 -11t-31.5 -26.5t-15 -32t-4 -27.5h-84q1 19 9 45.5t29 50.5t58 41t97 17q39 0 71.5 -12.5t56.5 -35t37 -55.5t13 -73q0 -43 -16.5 -86t-42 -83.5
t-57.5 -77t-62.5 -66.5t-56 -52.5t-39.5 -35.5h283v-68h-380v67z" />
    <glyph glyph-name="three" unicode="3" 
d="M52 505q0 21 10 45.5t31.5 45.5t56.5 35t86 14q39 0 72 -11t57 -32.5t37.5 -53t13.5 -72.5q0 -35 -11 -61t-27 -43.5t-34 -27t-31 -11.5v-2q20 -5 40.5 -14.5t37 -29t26.5 -50t10 -75.5q0 -85 -51.5 -129t-139.5 -44q-56 0 -92.5 14t-58.5 35t-32 46t-12 48h87
q2 -12 6.5 -27t16 -28t31 -22t50.5 -9q61 0 89 30t28 93q0 47 -14 73.5t-35 40t-46 16.5t-47 3v57q73 0 102 30t29 86q0 58 -26 85.5t-71 27.5q-33 0 -53 -9t-31.5 -21.5t-16 -27t-4.5 -25.5h-84z" />
    <glyph glyph-name="four" unicode="4" 
d="M114 246h186v301h-2zM300 178h-260v61l255 395h80v-388h110v-68h-110v-178h-75v178z" />
    <glyph glyph-name="five" unicode="5" 
d="M166 353q17 11 44.5 21t60.5 10q49 0 85 -16t59 -43t34.5 -64t11.5 -79q0 -48 -16 -84t-44 -60.5t-65 -36.5t-80 -12q-60 0 -97.5 16t-59 39t-29.5 47t-8 41h89q0 -12 5.5 -26.5t17.5 -28t32 -22.5t49 -9q61 0 94.5 34.5t33.5 103.5q0 40 -10.5 67.5t-27.5 44.5t-38 24
t-42 7q-25 0 -42 -5.5t-28.5 -13t-18.5 -16t-11 -15.5h-76l17 357h314v-68h-245z" />
    <glyph glyph-name="six" unicode="6" 
d="M153 185q0 -60 32 -99.5t92 -39.5q34 0 56 11t35 30t18.5 44t5.5 53q0 67 -27 104t-90 37q-58 0 -90 -39t-32 -101zM141 307h2q8 12 21 25.5t31.5 24.5t43.5 18t56 7q46 0 79 -16t54.5 -43t31.5 -63t10 -76q0 -45 -14.5 -81.5t-40 -61.5t-61 -38.5t-77.5 -13.5
q-71 0 -113 27t-64.5 72.5t-29.5 104.5t-7 123q0 65 8.5 124.5t32 105t65.5 72.5t110 27q54 0 88 -16.5t54 -39t27.5 -46.5t7.5 -39h-87q0 9 -4 23t-14.5 27.5t-28.5 23.5t-46 10q-42 0 -68.5 -22.5t-41 -57t-20 -76t-5.5 -78.5v-47z" />
    <glyph glyph-name="seven" unicode="7" 
d="M356 566h-291v68h373v-64l-241 -570h-83z" />
    <glyph glyph-name="eight" unicode="8" 
d="M130 175q0 -28 6.5 -51.5t20.5 -41t37.5 -27t58.5 -9.5q62 0 90 31t28 97q0 56 -29 90.5t-92 34.5q-57 0 -88.5 -32.5t-31.5 -91.5zM143 470q0 -23 5.5 -43.5t18.5 -36.5t34.5 -25t53.5 -9q48 0 76 29.5t28 83.5q0 60 -28.5 89.5t-80.5 29.5q-51 0 -79 -32t-28 -86z
M250 -11q-91 0 -144.5 43t-53.5 138q0 42 12 70t30 46t38.5 27t38.5 13v2q-18 6 -37 15.5t-34.5 27t-25 44.5t-9.5 68q0 72 48.5 117t138.5 45q40 0 74 -11t58.5 -31.5t38.5 -50t14 -67.5q0 -41 -11 -69t-27 -47t-34.5 -28.5t-34.5 -12.5v-2q16 -3 36.5 -12.5t39 -28
t31 -47.5t12.5 -71q0 -92 -53.5 -135t-145.5 -43z" />
    <glyph glyph-name="nine" unicode="9" 
d="M117 451q0 -68 27 -105t89 -37q59 0 91 39t32 102q0 30 -8 55t-24 43.5t-39 29t-53 10.5q-33 0 -55.5 -11t-35.5 -30t-18.5 -44t-5.5 -52zM367 327h-2q-8 -12 -21.5 -25.5t-32 -24.5t-43 -18t-54.5 -7q-46 0 -79 16t-54.5 43t-31.5 63t-10 77q0 45 14.5 81t40 61t61 38.5
t77.5 13.5q70 0 112.5 -27t64.5 -72t29 -104.5t7 -123.5q0 -65 -8.5 -124.5t-31.5 -105t-65.5 -72.5t-109.5 -27q-54 0 -88.5 16.5t-54.5 39.5t-27.5 47t-7.5 39h89q0 -9 4 -23.5t14 -28t27.5 -23.5t45.5 -10q42 0 68.5 22.5t41.5 57t20 76t5 79.5v46z" />
    <glyph glyph-name="colon" unicode=":" horiz-adv-x="259" 
d="M116 100h100v-100h-100v100zM116 476h100v-100h-100v100z" />
    <glyph glyph-name="semicolon" unicode=";" horiz-adv-x="259" 
d="M118 476h100v-100h-100v100zM125 100h88l-35 -223h-66z" />
    <glyph glyph-name="semicolon" unicode="&#x37e;" horiz-adv-x="259" 
d="M118 476h100v-100h-100v100zM125 100h88l-35 -223h-66z" />
    <glyph glyph-name="less" unicode="&#x3c;" horiz-adv-x="574" 
d="M56 204v62l462 204v-63l-394 -172l394 -172v-63z" />
    <glyph glyph-name="equal" unicode="=" horiz-adv-x="574" 
d="M56 347h462v-61h-462v61zM56 201h462v-61h-462v61z" />
    <glyph glyph-name="greater" unicode="&#x3e;" horiz-adv-x="574" 
d="M56 63l395 172l-395 172v63l462 -204v-62l-462 -204v63z" />
    <glyph glyph-name="question" unicode="?" horiz-adv-x="407" 
d="M120 97h98v-97h-98v97zM134 232q0 33 2 50.5t8 30t18 24.5t33 35l58 65q10 12 21 23.5t19 24t13.5 27t5.5 31.5q0 45 -32 69.5t-81 24.5q-21 0 -42.5 -4.5t-39.5 -10.5t-31.5 -11.5t-17.5 -7.5v75q14 5 51 14t83 9q40 0 74.5 -10t60 -29.5t40 -48t14.5 -66.5
q0 -29 -8.5 -52t-21.5 -41.5t-27 -32.5t-24 -26l-50 -57q-17 -19 -28 -31.5t-17 -24.5t-8 -27t-2 -39v-30h-71v46z" />
    <glyph glyph-name="at" unicode="@" horiz-adv-x="1000" 
d="M369 114q0 -36 19.5 -51.5t49.5 -15.5t56 20.5t47.5 52.5t38.5 70.5t28.5 74.5t17.5 65.5t6 42.5q0 23 -16 43.5t-46 20.5q-24 0 -48.5 -17.5t-47 -45.5t-41.5 -63t-33.5 -71t-22.5 -69t-8 -57zM831 -9q-6 -8 -30.5 -28t-66 -41.5t-98.5 -38t-128 -16.5
q-89 0 -164.5 24.5t-130.5 68t-86.5 104.5t-31.5 134q0 91 36.5 172t98 142t143 96.5t172.5 35.5q77 0 143 -24t114 -67.5t75.5 -103t27.5 -129.5q0 -66 -24 -124.5t-64 -102t-90.5 -68.5t-102.5 -25q-26 0 -40 7.5t-20.5 18.5t-8.5 23t-3 22q-6 -8 -17 -19t-27 -21
t-37.5 -17.5t-48.5 -7.5t-51.5 9t-42.5 27t-28.5 45t-10.5 62t10 73t28 74.5t42 69t53 57t61 39t65 14.5q31 0 52 -9t34 -21t19.5 -24.5t10.5 -19.5l22 54h87l-84 -207q-8 -21 -18.5 -47t-20 -50.5t-16 -44t-6.5 -28.5q0 -12 9.5 -19.5t20.5 -7.5q30 0 65 20t65.5 56
t50.5 85t20 107q0 63 -24.5 113.5t-65.5 86t-94.5 54.5t-111.5 19q-89 0 -162.5 -36t-126 -93t-81.5 -127t-29 -138q0 -62 24.5 -114.5t69.5 -90.5t109.5 -60t144.5 -22q66 0 117.5 14.5t88.5 32.5t59 34.5t27 20.5z" />
    <glyph glyph-name="A" unicode="A" horiz-adv-x="556" 
d="M175 278h204l-101 341h-2zM229 690h95l223 -690h-78l-69 213h-246l-67 -213h-78z" />
    <glyph glyph-name="B" unicode="B" horiz-adv-x="537" 
d="M163 65h90q15 0 41 2.5t52 15t45 39t19 73.5q0 32 -11.5 56.5t-31 41.5t-47 25.5t-58.5 8.5h-99v-262zM163 392h67q16 0 41.5 2t49 14t40.5 37t17 70q0 38 -14 60t-34.5 33t-44.5 14t-44 3h-78v-233zM85 690h183q42 0 76.5 -11t59 -32t38.5 -53t14 -74q0 -44 -13.5 -72.5
t-30.5 -45.5t-34 -25t-23 -10v-2q20 -5 43 -14.5t43 -29t33.5 -52t13.5 -82.5q0 -54 -18.5 -89.5t-49 -57.5t-70.5 -31t-82 -9h-183v690z" />
    <glyph glyph-name="C" unicode="C" horiz-adv-x="537" 
d="M499 30q-11 -5 -26.5 -11.5t-37.5 -13.5t-51 -11.5t-68 -4.5q-78 0 -129.5 34t-81.5 87.5t-42 119t-12 128.5q0 67 13 129t43 109.5t80 76t124 28.5q52 0 92 -15.5t67 -42t41 -63t14 -78.5h-88q0 58 -32.5 96t-93.5 38q-55 0 -89 -25.5t-53 -66t-26 -91t-7 -99.5
q0 -29 3 -62.5t11 -66.5t22 -64t36 -55t53.5 -38t73.5 -14q33 0 59.5 6.5t47 16t35 19t22.5 15.5v-81z" />
    <glyph glyph-name="D" unicode="D" horiz-adv-x="574" 
d="M163 65h53q50 0 91 10t70 40t45 85.5t16 145.5q0 93 -17 148.5t-48 84.5t-73 37.5t-93 8.5h-44v-560zM85 690h155q78 0 131.5 -23t87.5 -66.5t49 -107.5t15 -146q0 -115 -25 -183.5t-67.5 -105t-98.5 -47.5t-117 -11h-130v690z" />
    <glyph glyph-name="E" unicode="E" horiz-adv-x="463" 
d="M85 690h334v-65h-256v-231h244v-65h-244v-264h265v-65h-343v690z" />
    <glyph glyph-name="F" unicode="F" horiz-adv-x="426" 
d="M85 690h334v-65h-256v-231h244v-65h-244v-329h-78v690z" />
    <glyph glyph-name="G" unicode="G" horiz-adv-x="593" 
d="M526 55q-6 -6 -23 -17t-42.5 -22t-59.5 -19t-74 -8q-82 0 -135 31t-84.5 83.5t-44 121t-12.5 143.5q0 66 13.5 126.5t44 106t79.5 73t120 27.5q51 0 92.5 -15t70 -41.5t44 -63t15.5 -79.5h-88q0 23 -7 47t-22.5 43.5t-41 31.5t-62.5 12q-53 0 -86.5 -24.5t-52.5 -63
t-26.5 -86t-7.5 -94.5q0 -50 6 -105.5t25.5 -102t56 -76.5t97.5 -30q26 0 47.5 4.5t37.5 10.5t26.5 12.5t15.5 10.5v233h-158v65h236v-335z" />
    <glyph glyph-name="H" unicode="H" horiz-adv-x="611" 
d="M85 690h78v-299h285v299h78v-690h-78v326h-285v-326h-78v690z" />
    <glyph glyph-name="I" unicode="I" horiz-adv-x="259" 
d="M90 690h78v-690h-78v690z" />
    <glyph glyph-name="J" unicode="J" horiz-adv-x="352" 
d="M277 150q0 -31 -7 -60t-28 -51.5t-58.5 -36t-97.5 -13.5q-29 0 -47 3t-39 8v71q17 -6 42 -11.5t49 -5.5q12 0 30.5 2.5t36 13t29.5 31t12 57.5v532h78v-540z" />
    <glyph glyph-name="K" unicode="K" horiz-adv-x="519" 
d="M85 690h78v-313h2l242 313h91l-258 -331l279 -359h-92l-262 338h-2v-338h-78v690z" />
    <glyph glyph-name="L" unicode="L" horiz-adv-x="407" 
d="M85 690h78v-625h247v-65h-325v690z" />
    <glyph glyph-name="M" unicode="M" horiz-adv-x="796" 
d="M85 690h117l196 -587h2l196 587h116v-690h-70v607h-2l-203 -607h-77l-203 607h-2v-607h-70v690z" />
    <glyph glyph-name="N" unicode="N" horiz-adv-x="630" 
d="M85 690h100l284 -583h2v583h74v-690h-100l-284 581h-2v-581h-74v690z" />
    <glyph glyph-name="O" unicode="O" horiz-adv-x="593" 
d="M136 347q0 -47 5.5 -98.5t23 -94.5t49 -71.5t83.5 -28.5t83.5 28.5t48.5 71.5t22.5 94.5t5.5 98.5t-5.5 98t-22.5 93.5t-48.5 70t-83.5 27.5t-83.5 -27.5t-49 -70t-23 -93.5t-5.5 -98zM297 -11q-74 0 -122 31.5t-75.5 82t-38 114.5t-10.5 129q0 66 10.5 129.5t38 113.5
t75.5 81t122 31t121.5 -31t75 -81t38 -113.5t10.5 -129.5q0 -65 -10.5 -129t-38 -114.5t-75 -82t-121.5 -31.5z" />
    <glyph glyph-name="P" unicode="P" horiz-adv-x="481" 
d="M163 373h84q74 0 106.5 32.5t32.5 92.5q0 48 -17 73.5t-41 37.5t-51.5 14t-48.5 2h-65v-252zM85 690h160q13 0 34.5 -1t46 -6.5t49 -17t44.5 -33t32.5 -54t12.5 -79.5q0 -52 -16.5 -88.5t-45.5 -59t-69 -33t-88 -10.5h-82v-308h-78v690z" />
    <glyph glyph-name="Q" unicode="Q" horiz-adv-x="611" 
d="M136 347q0 -42 6 -91.5t24 -91.5t50 -70.5t84 -28.5q57 0 89.5 25t49.5 65.5t21.5 90.5t4.5 101q0 47 -5.5 98t-22.5 93.5t-48.5 70t-83.5 27.5q-55 0 -88 -27.5t-51 -70t-24 -93.5t-6 -98zM301 0q-74 0 -122.5 32.5t-77 83t-39.5 112t-11 118.5q0 66 11 129.5
t39.5 113.5t77.5 81t126 31q74 0 121.5 -31t75 -81t38 -113.5t10.5 -129.5q0 -62 -8 -110.5t-21 -84t-29.5 -58.5t-33.5 -33l2 -2l142 9v-67h-301z" />
    <glyph glyph-name="R" unicode="R" horiz-adv-x="537" 
d="M163 372h43q35 0 69.5 5t61.5 20t44 41.5t17 69.5q0 44 -16 67.5t-41.5 34.5t-57 13t-62.5 2h-58v-253zM85 690h171q12 0 32.5 -1t45 -6.5t50 -16.5t46 -30.5t33.5 -48.5t13 -71q0 -47 -13 -77.5t-33 -49.5t-45 -29.5t-49 -16.5v-2q36 -9 56.5 -23.5t32.5 -33.5t18 -43
t12 -52l40 -189h-78l-34 159q-8 37 -17 65t-25 46.5t-41 27.5t-65 9h-72v-307h-78v690z" />
    <glyph glyph-name="S" unicode="S" horiz-adv-x="481" 
d="M303 373q26 -15 52 -31t47 -38t34 -51t13 -70q0 -54 -20 -91t-53.5 -60t-77.5 -33t-92 -10q-28 0 -53.5 2.5t-47 6.5t-36.5 7t-22 5v80q6 -2 21 -8t37 -12t50 -11t60 -5t59 7.5t47 22.5t31.5 37t11.5 51t-10 50t-26 36.5t-37 28t-42 24.5l-61 34q-24 13 -50.5 28
t-48 35.5t-36 48.5t-14.5 67q0 45 17 78t46.5 55t70 33t88.5 11q50 0 88 -7t56 -11v-77q-6 3 -20 8t-34 10t-44.5 8.5t-52.5 3.5q-60 0 -95 -28.5t-35 -76.5q0 -23 10.5 -41t27 -32.5t37 -26.5t40.5 -23z" />
    <glyph glyph-name="T" unicode="T" horiz-adv-x="407" 
d="M165 625h-165v65h408v-65h-165v-625h-78v625z" />
    <glyph glyph-name="U" unicode="U" horiz-adv-x="593" 
d="M514 222q0 -34 -5.5 -74.5t-27.5 -76t-67 -59t-124 -23.5q-71 0 -112.5 23.5t-63.5 59t-28.5 76t-6.5 74.5v468h78v-453q0 -29 3 -61.5t16 -59.5t40.5 -44.5t76.5 -17.5q54 0 83 17.5t42.5 44.5t15.5 59.5t2 61.5v453h78v-468z" />
    <glyph glyph-name="V" unicode="V" horiz-adv-x="519" 
d="M-17 690h80l194 -605h2l197 605h80l-230 -690h-98z" />
    <glyph glyph-name="W" unicode="W" horiz-adv-x="833" 
d="M37 690h70l105 -592h2l162 592h82l161 -592h2l106 592h70l-122 -690h-96l-160 586h-2l-162 -586h-95z" />
    <glyph glyph-name="X" unicode="X" horiz-adv-x="519" 
d="M217 362l-196 328h85l154 -258l152 258h85l-195 -328l217 -362h-85l-174 290l-175 -290h-85z" />
    <glyph glyph-name="Y" unicode="Y" 
d="M210 318l-215 372h85l169 -293l172 293h85l-218 -372v-318h-78v318z" />
    <glyph glyph-name="Z" unicode="Z" horiz-adv-x="481" 
d="M24 67l332 558h-315v65h401v-67l-331 -558h345v-65h-432v67z" />
    <glyph glyph-name="bracketleft" unicode="[" horiz-adv-x="296" 
d="M98 761h181v-59h-107v-779h107v-59h-181v897z" />
    <glyph glyph-name="backslash" unicode="\" horiz-adv-x="296" 
d="M18 761h71l190 -897h-71z" />
    <glyph glyph-name="bracketright" unicode="]" horiz-adv-x="296" 
d="M18 -77h107v779h-107v59h181v-897h-181v59z" />
    <glyph glyph-name="asciicircum" unicode="^" horiz-adv-x="370" 
d="M156 690h60l95 -158h-61l-64 105l-65 -105h-61z" />
    <glyph glyph-name="underscore" unicode="_" 
d="M0 -75h500v-50h-500v50z" />
    <glyph glyph-name="quoteleft" unicode="&#x2018;" horiz-adv-x="204" 
d="M84 690h66l-10 -215h-90z" />
    <glyph glyph-name="a" unicode="a" horiz-adv-x="463" 
d="M276 216q-19 0 -45.5 -4.5t-51 -15.5t-42 -31t-17.5 -50q0 -34 20.5 -51.5t46.5 -17.5q32 0 64 19.5t47 54.5q4 10 7.5 18.5t6 18.5t3.5 24t1 35h-40zM318 63h-2q-5 -9 -16 -21.5t-29 -24t-43 -20t-58 -8.5q-59 0 -93.5 34.5t-34.5 98.5q0 42 24 70t58.5 45.5t74 25
t70.5 7.5q13 0 24 0.5t23 2.5v22t-0.5 26.5t-1 25t-1.5 17.5q-4 20 -13 32.5t-21 20t-26 10.5t-27 3q-29 0 -47 -6.5t-28.5 -17.5t-15 -24.5t-6.5 -27.5h-76q0 22 8.5 46t28.5 43t52.5 31.5t81.5 12.5q55 0 87 -15.5t48.5 -38.5t20.5 -50t4 -49v-334h-66v63z" />
    <glyph glyph-name="b" unicode="b" horiz-adv-x="481" 
d="M135 219q0 -21 3 -50.5t13.5 -56.5t32 -46.5t59.5 -19.5q32 0 54 16t35.5 42.5t19.5 60.5t6 70q0 34 -5.5 69t-17.5 63t-32 45.5t-50 17.5q-32 0 -54.5 -20t-36.5 -50.5t-20.5 -68t-6.5 -72.5zM135 397h2q4 13 13.5 28.5t25 29t38 23t52.5 9.5q49 0 82 -22.5t52.5 -58.5
t27.5 -81.5t8 -91.5q0 -51 -10.5 -95.5t-34 -77.5t-59.5 -52t-87 -19q-64 0 -99.5 23.5t-53 56.5t-21.5 68.5t-4 58.5v494h68v-293z" />
    <glyph glyph-name="c" unicode="c" horiz-adv-x="426" 
d="M390 2q-23 -7 -44.5 -10t-54.5 -3q-114 0 -179.5 65.5t-65.5 194.5q0 54 11 97.5t34.5 75t60.5 48.5t88 17q48 0 79 -13.5t50 -36t26.5 -50.5t7.5 -56h-81q0 19 -4.5 37t-14 31.5t-26 22t-40.5 8.5q-32 0 -54 -16t-35 -40t-18.5 -53.5t-5.5 -56.5q0 -34 7.5 -72.5
t28 -70.5t57.5 -53.5t96 -21.5q13 0 35 1.5t42 8.5v-54z" />
    <glyph glyph-name="d" unicode="d" horiz-adv-x="481" 
d="M123 221q0 -23 3 -53t13 -57t29.5 -46t53.5 -19q29 0 50.5 18t35 46t20 61.5t6.5 64.5q0 40 -7 75t-21 61.5t-34.5 42t-47.5 15.5q-30 0 -50 -18.5t-31 -48t-15.5 -67t-4.5 -75.5zM334 81h-2q-4 -13 -13 -29t-24 -30t-37 -23.5t-50 -9.5q-43 0 -74 17t-50.5 49t-29 77
t-9.5 102q0 48 9 93.5t28.5 81t50 57t74.5 21.5q31 0 53 -9t36.5 -22.5t22.5 -29t13 -28.5h2v292h68v-690h-68v81z" />
    <glyph glyph-name="e" unicode="e" horiz-adv-x="444" 
d="M322 340q0 12 -4.5 27.5t-15 29.5t-28 23.5t-43.5 9.5q-27 0 -45 -9.5t-29.5 -23.5t-17.5 -29.5t-8 -27.5h191zM389 3q-45 -14 -109 -14q-111 0 -171.5 66t-60.5 199q0 53 11 96t34 73.5t58 47t83 16.5q42 0 73 -13.5t52 -38t31 -57.5t10 -72v-23h-274v-28q0 -27 7 -63
t26 -68.5t52 -55t84 -22.5q20 0 34 1.5t24.5 3.5t19 4t16.5 4v-56z" />
    <glyph glyph-name="f" unicode="f" horiz-adv-x="315" 
d="M108 419h-80v57h80v66q0 29 7.5 56.5t25.5 48.5t48 33.5t75 12.5q26 0 45 -2.5t36 -6.5v-61q-14 5 -30.5 9t-38.5 4q-30 0 -49 -8t-30.5 -22t-16 -34t-4.5 -44v-52h137v-57h-137v-419h-68v419z" />
    <glyph glyph-name="g" unicode="g" horiz-adv-x="481" 
d="M123 234q0 -27 4 -58.5t14.5 -57.5t29.5 -43.5t49 -17.5q31 0 52.5 18.5t35 46.5t20 61.5t6.5 63.5q0 28 -6 60t-19.5 59.5t-35 45.5t-51.5 18q-27 0 -46 -16.5t-30.5 -43.5t-17 -62.5t-5.5 -73.5zM402 -1q0 -102 -49.5 -154.5t-152.5 -52.5q-56 0 -86.5 7t-42.5 9v69
q3 -1 12.5 -5.5t25 -9.5t36.5 -9t45 -4q46 0 74.5 12.5t44 34.5t20.5 50.5t5 60.5v84h-2q-4 -12 -12.5 -27.5t-23.5 -30t-37 -24t-53 -9.5q-47 0 -78 20t-49.5 53t-26 75.5t-7.5 86.5q0 48 9 93t28.5 80.5t50.5 57t75 21.5q30 0 52 -9.5t37 -23.5t23.5 -29.5t11.5 -26.5h2
v78h68v-477z" />
    <glyph glyph-name="h" unicode="h" 
d="M80 690h68v-324h2q5 15 14 35.5t25.5 39.5t43 32.5t66.5 13.5q30 0 53 -12t38.5 -32t23 -46.5t7.5 -56.5v-340h-68v264q0 31 -1 59t-7.5 49.5t-21 34t-40.5 12.5q-34 0 -59 -23t-42 -56.5t-25.5 -72.5t-8.5 -71v-196h-68v690z" />
    <glyph glyph-name="i" unicode="i" horiz-adv-x="241" 
d="M75 690h90v-90h-90v90zM86 476h68v-476h-68v476z" />
    <glyph glyph-name="j" unicode="j" horiz-adv-x="241" 
d="M171 600h-90v90h90v-90zM161 -49q0 -43 -14.5 -73t-39.5 -48.5t-58 -27t-70 -8.5h-10.5t-10.5 1v60q13 -4 31 -4q51 0 77.5 25t26.5 89v511h68v-525z" />
    <glyph glyph-name="k" unicode="k" horiz-adv-x="426" 
d="M80 690h68v-415h2l165 201h83l-171 -211l192 -265h-84l-185 254h-2v-254h-68v690z" />
    <glyph glyph-name="l" unicode="l" horiz-adv-x="241" 
d="M86 690h68v-690h-68v690z" />
    <glyph glyph-name="m" unicode="m" horiz-adv-x="741" 
d="M79 476h68v-110h2q4 15 12 35.5t23 39.5t38.5 32.5t59.5 13.5q60 0 88 -30.5t32 -78.5h2q4 13 14 32t26 36t39.5 29t55.5 12q30 0 53 -12t38.5 -32t23 -46.5t7.5 -56.5v-340h-68v264q0 31 -1 59t-7.5 49.5t-21 34t-40.5 12.5q-30 0 -52.5 -23t-37 -56.5t-22 -72.5
t-7.5 -71v-196h-68v264q0 31 -1 59t-7.5 49.5t-21 34t-40.5 12.5q-30 0 -52 -23t-37 -56.5t-22.5 -72.5t-7.5 -71v-196h-68v476z" />
    <glyph glyph-name="n" unicode="n" 
d="M80 476h68v-110h2q5 15 14 35.5t25.5 39.5t43 32.5t66.5 13.5q30 0 53 -12t38.5 -32t23 -46.5t7.5 -56.5v-340h-68v264q0 31 -1 59t-7.5 49.5t-21 34t-40.5 12.5q-34 0 -59 -23t-42 -56.5t-25.5 -72.5t-8.5 -71v-196h-68v476z" />
    <glyph glyph-name="o" unicode="o" horiz-adv-x="481" 
d="M124 238q0 -91 29 -141.5t87 -50.5q59 0 88.5 50.5t29.5 141.5q0 90 -29.5 141t-88.5 51q-58 0 -87 -51t-29 -141zM240 -11q-53 0 -89.5 19t-60 52.5t-34 79t-10.5 97.5t10.5 97.5t34 79.5t60 53.5t89.5 19.5t90 -19.5t60.5 -53.5t34.5 -79.5t11 -97.5t-11 -97.5
t-34.5 -79t-60.5 -52.5t-90 -19z" />
    <glyph glyph-name="p" unicode="p" horiz-adv-x="481" 
d="M148 240q0 -40 7 -75t21 -61.5t34.5 -42t47.5 -15.5q30 0 50 18.5t31 48t15.5 67t4.5 75.5q0 23 -3 53t-13 57t-30 46t-53 19q-30 0 -51 -18t-34.5 -46t-20 -61.5t-6.5 -64.5zM80 476h68v-81h2q4 13 13 29t24 30t36.5 23.5t50.5 9.5q43 0 74 -17t50.5 -49t29 -77
t9.5 -102q0 -48 -9 -93.5t-28.5 -81t-50 -57t-74.5 -21.5q-31 0 -53 9t-36.5 22.5t-23 29t-12.5 28.5h-2v-292h-68v690z" />
    <glyph glyph-name="q" unicode="q" horiz-adv-x="481" 
d="M124 255q0 -38 4.5 -75.5t15.5 -67t30.5 -48t49.5 -18.5q27 0 47.5 15.5t34.5 42t21 61.5t7 75q0 31 -6.5 64.5t-20 61.5t-34.5 46t-51 18q-33 0 -52.5 -19t-29.5 -46t-13 -57t-3 -53zM334 78h-2q-4 -13 -12.5 -28.5t-23 -29t-36.5 -22.5t-53 -9q-44 0 -74.5 21.5t-50 57
t-28 81t-8.5 93.5q0 57 9 102t28.5 77t50.5 49t74 17q28 0 50 -9.5t37 -23.5t24 -30t13 -29h2v81h68v-690h-68v292z" />
    <glyph glyph-name="r" unicode="r" horiz-adv-x="315" 
d="M80 476h68v-92h2q5 12 15.5 29.5t28.5 34t46 28t69 11.5v-73q-41 0 -71 -16t-50 -44.5t-30 -68.5t-10 -88v-197h-68v476z" />
    <glyph glyph-name="s" unicode="s" horiz-adv-x="370" 
d="M233 269q19 -10 38.5 -21t35.5 -26t26.5 -36.5t10.5 -52.5q0 -72 -46.5 -108t-130.5 -36q-47 0 -81.5 7.5t-48.5 12.5v62q4 -2 16.5 -6t29.5 -8t37 -7.5t40 -3.5q25 0 46 4.5t36.5 13.5t24.5 23.5t9 35.5q0 18 -9.5 31.5t-23 23.5t-28.5 17.5t-25 13.5l-43 23
q-17 9 -35.5 19.5t-35 25t-27 35t-10.5 49.5q0 58 41.5 92t121.5 34q38 0 66.5 -6t45.5 -10v-63q-12 5 -43.5 13.5t-67.5 8.5q-44 0 -70 -18t-26 -44q0 -15 8 -25.5t20.5 -19t28 -16t29.5 -14.5z" />
    <glyph glyph-name="t" unicode="t" horiz-adv-x="333" 
d="M305 -6q-15 -2 -30 -3.5t-30 -1.5q-72 0 -102 29.5t-30 93.5v307h-78v57h78v111l68 43v-154h128v-57h-128v-293q0 -12 2.5 -26t10.5 -26t23.5 -20t41.5 -8q17 0 26 2.5t20 6.5v-61z" />
    <glyph glyph-name="u" unicode="u" 
d="M348 110h-2q-5 -15 -13.5 -35.5t-25 -39.5t-43 -32.5t-66.5 -13.5q-31 0 -54 12t-38 32t-22.5 46.5t-7.5 56.5v340h68v-264q0 -31 1 -59t7.5 -49.5t21 -34t40.5 -12.5q34 0 59 22.5t41.5 56.5t25 73t8.5 71v196h68v-476h-68v110z" />
    <glyph glyph-name="v" unicode="v" horiz-adv-x="426" 
d="M8 476h73l140 -376h2l122 376h73l-161 -476h-69z" />
    <glyph glyph-name="w" unicode="w" horiz-adv-x="685" 
d="M42 476h68l87 -370h2l114 370h59l115 -370h2l86 370h68l-111 -476h-76l-112 365h-2l-111 -365h-74z" />
    <glyph glyph-name="x" unicode="x" horiz-adv-x="444" 
d="M181 250l-152 226h82l113 -166l113 166h82l-154 -226l171 -250h-82l-130 190l-133 -190h-82z" />
    <glyph glyph-name="y" unicode="y" horiz-adv-x="426" 
d="M188 0l-182 476h73l139 -374h2l128 374h73l-230 -669h-70z" />
    <glyph glyph-name="z" unicode="z" horiz-adv-x="407" 
d="M31 56l249 363h-231v57h314v-58l-248 -361h257v-57h-341v56z" />
    <glyph glyph-name="braceleft" unicode="{" 
d="M405 -238q-38 1 -75.5 14.5t-67.5 36t-49 53t-19 66.5q0 27 3.5 50t8.5 46q5 26 10.5 50t5.5 44q0 23 -9 43.5t-24.5 36.5t-35.5 28t-41 19v24q21 7 41 18t35.5 27t24.5 36.5t9 45.5q0 20 -5.5 44t-10.5 50q-5 23 -8.5 46t-3.5 50q0 36 19 66.5t49 53t67.5 35.5t75.5 15
v-25q-28 -6 -48 -20t-33 -33t-19.5 -40.5t-6.5 -42.5q0 -20 2 -40.5t5 -44.5q2 -18 4.5 -41.5t2.5 -37.5q0 -42 -17 -71.5t-41.5 -49.5t-51 -32.5t-45.5 -20.5q19 -8 45.5 -21.5t51 -34t41.5 -49.5t17 -69q0 -14 -2.5 -37.5t-4.5 -41.5q-3 -24 -5 -44.5t-2 -40.5
q0 -21 6.5 -42.5t19.5 -40.5t33 -33t48 -20v-25z" />
    <glyph glyph-name="bar" unicode="|" horiz-adv-x="259" 
d="M96 761h68v-897h-68v897z" />
    <glyph glyph-name="braceright" unicode="}" 
d="M98 -213q28 6 48 20t33 33t19.5 40.5t6.5 42.5q0 20 -2 40.5t-5 44.5q-2 18 -4.5 41.5t-2.5 37.5q0 40 17 69t41.5 49.5t51 34t45.5 21.5q-19 8 -45.5 20.5t-51 32.5t-41.5 49.5t-17 71.5q0 14 2.5 37.5t4.5 41.5q3 24 5 44.5t2 40.5q0 21 -6.5 42.5t-19.5 40.5t-33 33
t-48 20v25q37 -2 75 -15t68 -35.5t49 -53t19 -66.5q0 -27 -3.5 -50t-8.5 -46q-5 -26 -10.5 -50t-5.5 -44q0 -25 9 -45.5t24.5 -36.5t35.5 -27t41 -18v-24q-21 -7 -41 -19t-35.5 -28t-24.5 -36.5t-9 -43.5q0 -20 5.5 -44t10.5 -50q5 -23 8.5 -46t3.5 -50q0 -36 -19 -66.5
t-49 -53t-68 -36t-75 -14.5v25z" />
    <glyph glyph-name="asciitilde" unicode="~" horiz-adv-x="574" 
d="M57 211q0 13 4.5 34t17.5 40t34.5 33t56.5 14q32 0 51.5 -14t37.5 -31l84 -77q15 -14 29 -24.5t33 -10.5q34 0 47.5 23.5t13.5 52.5v45h50v-49q0 -11 -3.5 -32t-15.5 -41t-34.5 -35t-59.5 -15q-32 0 -51.5 15t-35.5 29l-89 82q-14 13 -26 23.5t-31 10.5q-20 0 -32.5 -8.5
t-19.5 -20.5t-9 -25t-2 -22v-45h-50v48z" />
    <glyph glyph-name="exclamdown" unicode="&#xa1;" horiz-adv-x="278" 
d="M53 554h98v-98h-98v98zM68 367h68l7 -503h-82z" />
    <glyph glyph-name="cent" unicode="&#xa2;" horiz-adv-x="444" 
d="M209 447q-23 -6 -39 -22t-25.5 -40t-13.5 -53.5t-4 -62.5q0 -48 8 -83.5t20 -61.5t26.5 -42.5t27.5 -25.5v391zM209 -4q-33 6 -63 23.5t-53.5 49.5t-37 79t-13.5 110q0 104 44.5 162.5t122.5 66.5v75h45v-75q66 -7 107.5 -46.5t41.5 -110.5h-81q0 45 -15 75t-53 42v-409
q9 -5 22.5 -7t23.5 -2q26 0 51.5 5t42.5 13v-41q-6 -3 -19 -6t-29.5 -5.5t-35 -4t-35.5 -1.5h-21v-86h-45v93z" />
    <glyph glyph-name="sterling" unicode="&#xa3;" horiz-adv-x="444" 
d="M100 300h-67v57h67v147q0 77 39.5 119.5t127.5 42.5q53 0 88 -15.5t55.5 -37.5t29 -47t8.5 -44h-81q0 12 -4.5 27.5t-16 28.5t-30.5 22t-48 9t-46.5 -10t-27 -26t-13 -37.5t-3.5 -43.5v-135h116v-57h-116v-232h252v-68h-330v300z" />
    <glyph glyph-name="fraction" unicode="&#x2044;" horiz-adv-x="259" 
d="M205 634h57l-208 -634h-57z" />
    <glyph glyph-name="fraction" unicode="&#x2215;" horiz-adv-x="259" 
d="M205 634h57l-208 -634h-57z" />
    <glyph glyph-name="yen" unicode="&#xa5;" 
d="M182 367h-152v57h119l-154 266h84l170 -295l173 295h84l-156 -266h121v-57h-154l-29 -49v-66h183v-57h-183v-195h-78v195h-180v57h180v66z" />
    <glyph glyph-name="florin" unicode="&#x192;" horiz-adv-x="315" 
d="M105 421h-82l10 57h82l6 27q4 18 10.5 49.5t24.5 62t52 53.5t94 23q40 0 84 -11l-9 -57q-16 4 -31.5 7.5t-31.5 3.5q-37 0 -58 -12.5t-33 -31.5t-16.5 -42t-8.5 -43l-5 -29h124l-10 -57h-124l-74 -421h-78z" />
    <glyph glyph-name="section" unicode="&#xa7;" horiz-adv-x="463" 
d="M209 288q40 -18 65.5 -28.5t36.5 -15.5q5 5 12 12.5t14 17.5t11.5 22t4.5 26q0 32 -21 50t-56 35q-14 6 -34 14.5t-39.5 16.5t-35 14t-19.5 9q-10 -11 -24 -29.5t-14 -47.5q0 -21 8.5 -35.5t23 -25.5t32 -19t35.5 -16zM379 604q-17 10 -52.5 25t-81.5 15q-39 0 -68.5 -17
t-29.5 -44q0 -30 25 -49t60 -33.5t72.5 -28t63.5 -31.5q27 -20 41 -40.5t14 -53.5q0 -27 -9.5 -48t-22 -36t-25 -24.5t-18.5 -13.5q5 -4 14 -11.5t18 -19.5t15.5 -28.5t6.5 -37.5q0 -34 -15.5 -60t-42.5 -43.5t-62.5 -26.5t-75.5 -9q-48 0 -81 8t-47 13v80q23 -14 57 -29
t76 -15q47 0 79 19t32 54q0 28 -25 47t-60.5 35t-74 30t-65.5 31q-31 20 -44 43.5t-13 55.5q0 25 9.5 46t21.5 36.5t24 25.5t17 15q-4 3 -11.5 10t-15 17.5t-13 25.5t-5.5 34q0 33 14.5 57t37.5 40.5t53 24.5t62 8q27 0 51 -3t43.5 -7.5t32.5 -8.5t18 -5v-73z" />
    <glyph glyph-name="currency" unicode="&#xa4;" 
d="M80 350q0 -35 13.5 -66t36.5 -54t54 -36t66 -13t66 13t54.5 36t37 54t13.5 66q0 36 -13.5 67.5t-37 55t-54.5 37t-66 13.5t-66 -13.5t-54 -37t-36.5 -55t-13.5 -67.5zM389 183q-9 -6 -21.5 -14.5t-29.5 -16t-38.5 -12.5t-49.5 -5q-27 0 -48.5 5t-38.5 12.5t-29.5 16
t-22.5 14.5l-67 -67l-30 31l67 67q-5 6 -12.5 17.5t-15.5 28.5t-13.5 39.5t-5.5 50.5q0 30 5 52.5t12.5 39.5t15.5 28.5t14 19.5l-68 67l32 32l66 -67q10 7 22.5 15t29.5 15t38.5 12t48.5 5t48.5 -5t38.5 -12t29.5 -15t22.5 -15l67 67l31 -32l-67 -67q5 -8 13 -19.5
t15.5 -28t13 -39.5t5.5 -53q0 -28 -6 -50.5t-13.5 -39.5t-15.5 -28.5t-12 -17.5l67 -67l-31 -31z" />
    <glyph glyph-name="quotesingle" unicode="'" horiz-adv-x="204" 
d="M56 690h91l-16 -215h-58z" />
    <glyph glyph-name="quotedblleft" unicode="&#x201c;" horiz-adv-x="352" 
d="M231 690h67l-10 -215h-90zM82 690h67l-10 -215h-90z" />
    <glyph glyph-name="guillemotleft" unicode="&#xab;" horiz-adv-x="352" 
d="M163 244l74 188h72l-62 -188l62 -185h-72zM32 244l74 188h72l-63 -188l63 -185h-72z" />
    <glyph glyph-name="guilsinglleft" unicode="&#x2039;" horiz-adv-x="222" 
d="M33 244l73 188h72l-62 -188l62 -185h-72z" />
    <glyph glyph-name="guilsinglright" unicode="&#x203a;" horiz-adv-x="222" 
d="M105 248l-61 184h72l73 -184l-73 -189h-72z" />
    <glyph glyph-name="endash" unicode="&#x2013;" 
d="M52 283h397v-68h-397v68z" />
    <glyph glyph-name="dagger" unicode="&#x2020;" 
d="M213 379h-174v65h174v246h75v-246h174v-65h-174v-379h-75v379z" />
    <glyph glyph-name="daggerdbl" unicode="&#x2021;" horiz-adv-x="519" 
d="M222 316h-175v65h175v67h-175v65h175v177h75v-177h175v-65h-175v-67h175v-65h-175v-316h-75v316z" />
    <glyph glyph-name="periodcentered" unicode="&#xb7;" horiz-adv-x="204" 
d="M54 366h96v-97h-96v97z" />
    <glyph glyph-name="periodcentered" unicode="&#x2219;" horiz-adv-x="204" 
d="M54 366h96v-97h-96v97z" />
    <glyph glyph-name="paragraph" unicode="&#xb6;" 
d="M286 223q-32 4 -70.5 17t-72 39.5t-56.5 68t-23 102.5q0 65 27 111t70.5 74.5t96.5 41.5t106 13h114v-41h-67v-863h-37v863h-51v-863h-37v437z" />
    <glyph glyph-name="bullet" unicode="&#x2022;" 
d="M250 180q-38 0 -70.5 14t-57.5 38.5t-39 57.5t-14 70t14 70.5t39 58t57.5 39t70.5 14.5q37 0 70 -14.5t57.5 -39t39 -58t14.5 -70.5t-14.5 -70t-39 -57.5t-57.5 -38.5t-70 -14z" />
    <glyph glyph-name="quotesinglbase" unicode="&#x201a;" horiz-adv-x="204" 
d="M64 100h90l-33 -216h-67z" />
    <glyph glyph-name="quotedblbase" unicode="&#x201e;" horiz-adv-x="352" 
d="M213 100h90l-33 -216h-67zM64 100h90l-33 -216h-67z" />
    <glyph glyph-name="quotedblright" unicode="&#x201d;" horiz-adv-x="352" 
d="M213 690h90l-33 -215h-67zM64 690h90l-33 -215h-67z" />
    <glyph glyph-name="guillemotright" unicode="&#xbb;" horiz-adv-x="352" 
d="M236 248l-62 184h72l74 -184l-74 -189h-72zM105 248l-62 184h72l73 -184l-73 -189h-72z" />
    <glyph glyph-name="ellipsis" unicode="&#x2026;" horiz-adv-x="704" 
d="M542 93h90v-93h-90v93zM307 93h90v-93h-90v93zM72 93h90v-93h-90v93z" />
    <glyph glyph-name="perthousand" unicode="&#x2030;" horiz-adv-x="1167" 
d="M483 634h57l-208 -634h-56zM904 213q0 -33 3 -64.5t12.5 -56.5t27 -40t45.5 -15t45.5 15t27 40t12.5 56.5t3 64.5t-3 64.5t-12.5 56t-27 39.5t-45.5 15t-45.5 -15t-27 -39.5t-12.5 -56t-3 -64.5zM992 -11q-44 0 -73 19t-45.5 50.5t-23 72t-6.5 82.5t6.5 82t23 71.5
t45.5 50.5t73 19t73 -19t45.5 -50.5t23 -71.5t6.5 -82t-6.5 -82.5t-23 -72t-45.5 -50.5t-73 -19zM551 213q0 -33 3 -64.5t13 -56.5t27 -40t46 -15q28 0 45.5 15t27 40t12.5 56.5t3 64.5t-3 64.5t-12.5 56t-27 39.5t-45.5 15q-29 0 -46 -15t-27 -39.5t-13 -56t-3 -64.5z
M640 -11q-44 0 -73 19t-46 50.5t-23.5 72t-6.5 82.5t6.5 82t23.5 71.5t46 50.5t73 19t73 -19t45.5 -50.5t23 -71.5t6.5 -82t-6.5 -82.5t-23 -72t-45.5 -50.5t-73 -19zM88 422q0 -33 3 -64.5t12.5 -56.5t27 -40t45.5 -15t45.5 15t27 40t12.5 56.5t3 64.5t-3 64.5t-12.5 56
t-27 39.5t-45.5 15t-45.5 -15t-27 -39.5t-12.5 -56t-3 -64.5zM176 198q-44 0 -73 19t-45.5 50.5t-23 72t-6.5 82.5t6.5 82t23 71.5t45.5 50.5t73 19t73 -19t45.5 -50.5t23 -71.5t6.5 -82t-6.5 -82.5t-23 -72t-45.5 -50.5t-73 -19z" />
    <glyph glyph-name="questiondown" unicode="&#xbf;" horiz-adv-x="407" 
d="M190 554h98v-97h-98v97zM339 -124q-7 -2 -20 -6t-30.5 -8t-39 -6.5t-43.5 -2.5q-40 0 -74.5 10t-60 29.5t-40 48t-14.5 66.5q0 29 8.5 52t21 41.5t26.5 32.5t24 26l51 57q17 19 28 31.5t17 24.5t8 27t2 39v30h71v-46q0 -33 -2 -50.5t-8.5 -30t-18.5 -25t-32 -34.5
l-58 -64q-21 -24 -40 -48t-19 -59q0 -45 31.5 -69.5t81.5 -24.5q21 0 42.5 4.5t39.5 10.5t31 11.5t17 7.5v-75z" />
    <glyph glyph-name="grave" unicode="`" horiz-adv-x="300" 
d="M51 693h88l42 -134h-63z" />
    <glyph glyph-name="acute" unicode="&#xb4;" horiz-adv-x="300" 
d="M160 693h88l-67 -134h-63z" />
    <glyph glyph-name="circumflex" unicode="&#x2c6;" horiz-adv-x="300" 
d="M113 693h74l88 -134h-61l-63 83l-65 -83h-61z" />
    <glyph glyph-name="tilde" unicode="&#x2dc;" horiz-adv-x="300" 
d="M31 559q0 15 2.5 35t8.5 41q8 25 23.5 31.5t22.5 6.5q15 0 31.5 -8.5t32 -18.5t30 -18.5t24.5 -8.5q8 0 12 5t6 12.5t2.5 15.5t0.5 14h42q0 -19 -2 -38.5t-8 -35t-17.5 -25.5t-30.5 -10q-17 0 -34.5 8t-33.5 17.5t-29 17.5t-20 8t-11 -7t-6.5 -16t-3 -17t-0.5 -9h-42z
" />
    <glyph glyph-name="macron" unicode="&#xaf;" horiz-adv-x="300" 
d="M23 619h253v-60h-253v60z" />
    <glyph glyph-name="macron" unicode="&#x2c9;" horiz-adv-x="300" 
d="M23 619h253v-60h-253v60z" />
    <glyph glyph-name="breve" unicode="&#x2d8;" horiz-adv-x="300" 
d="M274 693q0 -16 -5 -39t-19 -44t-38 -36t-61 -15q-38 0 -62 15t-38 36t-19.5 44t-5.5 39h44q1 -9 5 -21.5t12.5 -24t23 -19.5t38.5 -8q22 0 37.5 8t25 19.5t13.5 24t4 21.5h45z" />
    <glyph glyph-name="dotaccent" unicode="&#x2d9;" horiz-adv-x="300" 
d="M104 661h92v-91h-92v91z" />
    <glyph glyph-name="dieresis" unicode="&#xa8;" horiz-adv-x="300" 
d="M193 658h90v-88h-90v88zM17 658h90v-88h-90v88z" />
    <glyph glyph-name="ring" unicode="&#x2da;" horiz-adv-x="300" 
d="M107 629q0 -18 12.5 -30.5t30.5 -12.5t30.5 12.5t12.5 30.5q0 17 -12.5 29.5t-30.5 12.5q-19 0 -31 -12.5t-12 -29.5zM150 543q-18 0 -33.5 7t-27.5 18.5t-18.5 27t-6.5 33.5t7 33.5t19 27t27.5 18t33.5 6.5q35 0 60 -25t25 -60q0 -18 -7 -33.5t-18.5 -27t-27 -18.5
t-33.5 -7z" />
    <glyph glyph-name="cedilla" unicode="&#xb8;" horiz-adv-x="300" 
d="M164 -58q42 0 63 -24.5t21 -61.5q0 -33 -24.5 -58t-73.5 -25q-23 0 -39 4.5t-24 8.5v51q8 -8 24 -16t33 -8q19 0 33.5 13t14.5 33q0 16 -7.5 26t-18 15t-22 6.5t-20.5 1.5q-6 0 -12 -0.5t-12 -0.5l24 109h43l-18 -74h15z" />
    <glyph glyph-name="hungarumlaut" unicode="&#x2dd;" horiz-adv-x="300" 
d="M223 693h88l-67 -134h-63zM98 693h88l-67 -134h-63z" />
    <glyph glyph-name="ogonek" unicode="&#x2db;" horiz-adv-x="300" 
d="M273 -212q-14 -3 -28.5 -5.5t-29.5 -2.5q-19 0 -37 5.5t-32 16t-22.5 27t-8.5 38.5q0 25 11 48.5t25.5 42t29 32t20.5 19.5h43q-9 -9 -21 -22.5t-23 -30t-19 -35t-8 -37.5q0 -23 13 -42.5t40 -19.5q17 0 29 5.5t18 9.5v-49z" />
    <glyph glyph-name="caron" unicode="&#x2c7;" horiz-adv-x="300" 
d="M25 693h61l65 -84l63 84h61l-88 -134h-74z" />
    <glyph glyph-name="emdash" unicode="&#x2014;" horiz-adv-x="685" 
d="M52 283h582v-68h-582v68z" />
    <glyph glyph-name="AE" unicode="&#xc6;" horiz-adv-x="796" 
d="M287 364h149l-15 242h-2zM393 690h359v-65h-264l20 -261h232v-65h-228l17 -234h233v-65h-300l-21 299h-184l-170 -299h-87z" />
    <glyph glyph-name="ordfeminine" unicode="&#xaa;" horiz-adv-x="259" 
d="M177 406q-18 0 -36 -2.5t-33 -8.5t-24 -16.5t-9 -27.5t11 -26.5t28 -9.5q29 0 49.5 21t22.5 47q0 6 0.5 12t0.5 11h-10zM187 322h-2q-3 -5 -8 -12t-14.5 -13.5t-23.5 -11t-33 -4.5q-33 0 -52 20.5t-19 49.5q0 32 19 49t44.5 25t51 9.5t37.5 1.5q0 17 -1 33t-5.5 28.5
t-15 20t-29.5 7.5q-16 0 -26 -5t-16 -11.5t-8.5 -14t-2.5 -12.5h-42q0 10 4 23t14.5 24t29 18.5t46.5 7.5q31 0 48.5 -8.5t26.5 -21t11 -27.5t2 -28v-183h-36v35z" />
    <glyph glyph-name="Oslash" unicode="&#xd8;" horiz-adv-x="593" 
d="M186 107q20 -25 45 -39t66 -14q52 0 83.5 28.5t48.5 71.5t22.5 94.5t5.5 98.5q0 49 -5.5 101t-21.5 94zM402 592q-21 30 -47.5 37t-57.5 7q-52 0 -83.5 -27.5t-49 -70t-23 -93.5t-5.5 -98q0 -45 5 -95t19 -93zM475 620q38 -56 52.5 -127.5t14.5 -146.5q0 -65 -10.5 -129
t-38 -114.5t-75 -82t-121.5 -31.5q-28 0 -49 3.5t-38 10t-31 16.5t-29 22l-47 -81l-43 25l54 96q-35 57 -49 119t-14 146q0 66 10.5 129.5t38 113.5t75.5 81t122 31q27 0 47 -3t36 -8.5t30 -14t29 -18.5l43 74l42 -25z" />
    <glyph glyph-name="OE" unicode="&#x152;" horiz-adv-x="870" 
d="M136 347q0 -47 6 -98.5t24 -94.5t52 -71.5t90 -28.5q57 0 91 28.5t53 71.5t25 94.5t6 98.5t-8 98t-27.5 93.5t-53.5 70t-86 27.5q-56 0 -90 -27.5t-52 -70t-24 -93.5t-6 -98zM483 94h-2q-14 -23 -29.5 -42.5t-37 -33.5t-50 -21.5t-67.5 -7.5q-74 0 -122 31.5t-75.5 82
t-38 114.5t-10.5 129q0 66 10.5 129.5t38 113.5t75.5 81t122 31q59 0 105.5 -25.5t78.5 -82.5h2v97h352v-65h-274v-231h261v-65h-261v-264h284v-65h-362v94z" />
    <glyph glyph-name="ordmasculine" unicode="&#xba;" horiz-adv-x="278" 
d="M72 418q0 -18 2.5 -37t10 -34t20.5 -25t34 -10t34 10t20.5 25t10.5 34t3 37t-3 37t-10.5 34.5t-20.5 25.5t-34 10t-34 -10t-20.5 -25.5t-10 -34.5t-2.5 -37zM139 282q-29 0 -49.5 10.5t-33 29t-18.5 43t-6 53.5q0 28 6 53t18.5 44t33 29.5t49.5 10.5t49.5 -10.5
t33.5 -29.5t19 -44t6 -53q0 -29 -6 -53.5t-19 -43t-33.5 -29t-49.5 -10.5z" />
    <glyph glyph-name="ae" unicode="&#xe6;" horiz-adv-x="704" 
d="M584 310q0 16 -4.5 36.5t-15 39t-28 31.5t-43.5 13q-29 0 -48 -13t-31 -31.5t-18 -39t-8 -36.5h196zM277 253q-19 0 -45.5 -5t-51 -18t-42 -35.5t-17.5 -56.5q0 -45 20.5 -68.5t46.5 -23.5q19 0 41 6.5t41 23t32 43.5t13 69v65h-38zM651 3q-45 -14 -109 -14
q-27 0 -55.5 6t-55 18.5t-48.5 31.5t-34 44q-11 -21 -25.5 -39.5t-35 -32t-49.5 -21t-68 -7.5q-59 0 -93.5 40.5t-34.5 115.5q0 45 24 76t58.5 50t74 27t70.5 8q12 0 22.5 1t22.5 2v55q-4 20 -13 32.5t-21 20t-26 10.5t-28 3q-29 0 -47 -6.5t-28.5 -17.5t-15 -24.5
t-6.5 -27.5h-76q0 22 8.5 46t28.5 43t52.5 31.5t81.5 12.5q51 0 84.5 -17.5t47.5 -43.5q22 25 57.5 43t81.5 18q42 0 73 -16t51.5 -44t31 -66.5t10.5 -83.5v-24h-279v-27q0 -23 9 -54t29.5 -59t54 -47.5t82.5 -19.5q19 0 33 1.5t24.5 3.5t19 4t16.5 4v-56z" />
    <glyph glyph-name="dotlessi" unicode="&#x131;" horiz-adv-x="241" 
d="M87 476h68v-476h-68v476z" />
    <glyph glyph-name="oslash" unicode="&#xf8;" horiz-adv-x="481" 
d="M171 72q13 -13 28 -19.5t41 -6.5q59 0 88.5 50.5t29.5 141.5q0 33 -3 63.5t-19 64.5zM312 403q-16 27 -72 27q-58 0 -87 -51t-29 -141q0 -79 23 -130zM375 431q32 -39 46.5 -88.5t14.5 -105.5q0 -52 -11 -97.5t-34.5 -79t-60.5 -52.5t-90 -19q-35 0 -59.5 7.5t-39.5 20.5
l-41 -69l-36 22l44 74q-22 23 -42 71t-20 122q1 52 13 98t35.5 79.5t59.5 53t86 19.5q59 0 102 -29l40 67l36 -22z" />
    <glyph glyph-name="oe" unicode="&#x153;" horiz-adv-x="759" 
d="M639 308q0 16 -4.5 37t-15 40t-28 32t-42.5 13q-29 0 -48.5 -13t-31.5 -32t-18 -40t-8 -37h196zM124 238q0 -91 30 -141.5t91 -50.5q59 0 89 50.5t30 141.5q0 90 -30 141t-89 51q-61 0 -91 -51t-30 -141zM707 3q-23 -7 -49.5 -10.5t-60.5 -3.5q-27 0 -56 6t-54.5 18
t-45.5 31t-30 46q-8 -17 -20 -34.5t-32 -32.5t-49 -24.5t-70 -9.5q-53 0 -89.5 19t-60 52.5t-34 79t-10.5 97.5t10.5 97.5t34 79.5t60 53.5t89.5 19.5q48 0 92 -21t67 -63q13 23 31.5 39t39 26t42 14.5t40.5 4.5q42 0 73 -16t51.5 -44.5t30.5 -67.5t10 -84v-24h-279v-28
q0 -23 7 -53.5t26.5 -58t53.5 -46.5t88 -19q20 0 34 1.5t24.5 3.5t18.5 4t17 4v-56z" />
    <glyph glyph-name="germandbls" unicode="&#xdf;" horiz-adv-x="519" 
d="M80 506q0 43 9 78.5t29 61.5t53.5 40.5t83.5 14.5q41 0 74 -12.5t56.5 -35t36.5 -54t13 -69.5q0 -34 -8.5 -60t-23 -45t-33 -31t-38.5 -18v-2q27 -3 53 -13.5t45.5 -32.5t31.5 -56t12 -85q0 -97 -51.5 -146.5t-142.5 -49.5q-17 0 -37 2t-39 9v57q17 -3 32.5 -7t34.5 -4
q34 0 58 11t39 30t21.5 44.5t6.5 54.5q0 32 -6 60.5t-21.5 50t-42 34t-66.5 12.5h-15v57h15q44 5 70.5 33.5t26.5 89.5q0 50 -27 84.5t-76 34.5q-40 0 -61.5 -14.5t-31.5 -37t-11.5 -50.5t-1.5 -54v-488h-68v506z" />
    <glyph glyph-name="divide" unicode="&#xf7;" horiz-adv-x="574" 
d="M242 487h91v-91h-91v91zM242 91h91v-91h-91v91zM56 274h462v-61h-462v61z" />
    <glyph glyph-name="registered" unicode="&#xae;" 
d="M206 488h54q16 0 27 7.5t11 24.5q0 33 -42 33h-50v-65zM161 596h83q18 0 36 -2.5t32.5 -10.5t23.5 -24t9 -43q0 -17 -4.5 -27t-11 -17t-14 -10.5t-13.5 -6.5l46 -107h-50l-38 100h-54v-100h-45v248zM50 466q0 -41 16 -77.5t43 -63.5t63.5 -43t77.5 -16t77.5 16t63.5 43
t43 63.5t16 77.5t-16 77.5t-43 63.5t-63.5 43t-77.5 16t-77.5 -16t-63.5 -43t-43 -63.5t-16 -77.5zM250 231q-48 0 -91 18.5t-75 50.5t-50.5 74.5t-18.5 91.5q0 48 18.5 91t50.5 75t75 50.5t91 18.5t91 -18.5t75 -50.5t50.5 -75t18.5 -91q0 -49 -18.5 -91.5t-50.5 -74.5
t-74.5 -50.5t-91.5 -18.5z" />
    <glyph glyph-name="ccedilla" unicode="&#xe7;" horiz-adv-x="426" 
d="M185 8q-66 25 -102.5 85t-36.5 156q0 54 11 97.5t34.5 75t60.5 48.5t88 17q48 0 79 -13.5t50 -36t26.5 -50.5t7.5 -56h-81q0 19 -4.5 37t-14 31.5t-26 22t-40.5 8.5q-32 0 -54 -16t-35 -40t-18.5 -53.5t-5.5 -56.5q0 -34 7.5 -72.5t28 -70.5t57.5 -53.5t96 -21.5
q13 0 35 1.5t42 8.5v-54q-23 -7 -44.5 -10t-54.5 -3q-38 0 -66 7l-13 -54h15q42 0 63 -24.5t21 -61.5q0 -33 -24.5 -58t-73.5 -25q-23 0 -39 4.5t-24 8.5v51q8 -8 24 -16t33 -8q19 0 33.5 13t14.5 33q0 16 -7.5 26t-18 15t-22 6.5t-20.5 1.5q-6 0 -12 -0.5t-12 -0.5z" />
    <glyph glyph-name="plusminus" unicode="&#xb1;" horiz-adv-x="574" 
d="M253 213h-197v61h197v196h68v-196h197v-61h-197v-213h-68v213zM56 -43h462v-61h-462v61z" />
    <glyph glyph-name="Ccedilla" unicode="&#xc7;" horiz-adv-x="537" 
d="M239 1q-55 16 -91.5 53.5t-58 87t-30 106t-8.5 110.5q0 67 13 129t43 109.5t80 76t124 28.5q52 0 92 -15.5t67 -42t41 -63t14 -78.5h-88q0 58 -32.5 96t-93.5 38q-55 0 -89 -25.5t-53 -66t-26 -91t-7 -99.5q0 -29 3 -62.5t11 -66.5t22 -64t36 -55t53.5 -38t73.5 -14
q33 0 59.5 6.5t47 16t35 19t22.5 15.5v-81q-11 -5 -26.5 -11.5t-37.5 -13.5t-51 -11.5t-68 -4.5q-21 0 -37 3l-12 -50h15q42 0 63 -24.5t21 -61.5q0 -33 -24.5 -58t-73.5 -25q-23 0 -39 4.5t-24 8.5v51q8 -8 24 -16t33 -8q19 0 33.5 13t14.5 33q0 16 -7.5 26t-18 15t-22 6.5
t-20.5 1.5q-6 0 -12 -0.5t-12 -0.5z" />
    <glyph glyph-name="copyright" unicode="&#xa9;" 
d="M357 375q-4 -4 -11.5 -10.5t-19 -13t-27.5 -11t-37 -4.5q-27 0 -52 10t-43.5 28t-30 42.5t-11.5 53.5t11.5 53.5t30.5 42.5t43.5 28t51.5 10q20 0 36 -4.5t27.5 -11t19 -13t12.5 -10.5l-26 -33q-9 8 -26 19.5t-43 11.5q-16 0 -32.5 -6t-30 -18t-22 -29.5t-8.5 -39.5
q0 -23 8.5 -40.5t21.5 -29t29 -17.5t30 -6q32 0 47.5 11t25.5 19zM50 466q0 -41 16 -77.5t43 -63.5t63.5 -43t77.5 -16t77.5 16t63.5 43t43 63.5t16 77.5t-16 77.5t-43 63.5t-63.5 43t-77.5 16t-77.5 -16t-63.5 -43t-43 -63.5t-16 -77.5zM250 231q-48 0 -91 18.5t-75 50.5
t-50.5 74.5t-18.5 91.5q0 48 18.5 91t50.5 75t75 50.5t91 18.5t91 -18.5t75 -50.5t50.5 -75t18.5 -91q0 -49 -18.5 -91.5t-50.5 -74.5t-74.5 -50.5t-91.5 -18.5z" />
    <glyph glyph-name="logicalnot" unicode="&#xac;" horiz-adv-x="574" 
d="M450 213h-394v61h462v-209h-68v148z" />
    <glyph glyph-name="trademark" unicode="&#x2122;" horiz-adv-x="611" 
d="M262 690h79l49 -228h2l48 228h80v-290h-43v262h-2l-58 -262h-53l-57 262h-2v-262h-43v290zM112 648h-73v42h189v-42h-73v-248h-43v248z" />
    <glyph glyph-name="degree" unicode="&#xb0;" horiz-adv-x="333" 
d="M103 537q0 -27 18.5 -46.5t45.5 -19.5t45.5 18t18.5 48q0 26 -19 44t-45 18t-45 -18.5t-19 -43.5zM167 425q-23 0 -43 9t-35 24.5t-23.5 36t-8.5 43.5q0 21 9 40.5t24 34t35 23.5t42 9t42 -9t35 -24t24 -34.5t9 -40.5q0 -24 -8.5 -44.5t-23.5 -35.5t-35 -23.5t-43 -8.5z
" />
    <glyph glyph-name="mu" unicode="&#xb5;" horiz-adv-x="519" 
d="M81 476h68v-275q0 -20 1.5 -47t11 -51t29.5 -40.5t57 -16.5q28 0 47 12.5t32 32.5t20 45t10.5 49t4.5 45.5t1 33.5v212h68v-334q0 -47 5.5 -73t37.5 -26q8 0 11 1v-47q-6 -2 -12 -3t-12 -1q-52 0 -75 24.5t-23 72.5h-2q-3 -12 -10.5 -29.5t-22.5 -33.5t-38 -27t-55 -11
q-41 0 -58 11.5t-29 22.5v-227h-67v680z" />
    <glyph glyph-name="mu" unicode="&#x3bc;" horiz-adv-x="519" 
d="M81 476h68v-275q0 -20 1.5 -47t11 -51t29.5 -40.5t57 -16.5q28 0 47 12.5t32 32.5t20 45t10.5 49t4.5 45.5t1 33.5v212h68v-334q0 -47 5.5 -73t37.5 -26q8 0 11 1v-47q-6 -2 -12 -3t-12 -1q-52 0 -75 24.5t-23 72.5h-2q-3 -12 -10.5 -29.5t-22.5 -33.5t-38 -27t-55 -11
q-41 0 -58 11.5t-29 22.5v-227h-67v680z" />
    <glyph glyph-name="numbersign" unicode="#" horiz-adv-x="574" 
d="M231 269h84l24 95h-84zM152 214h-94l14 55h94l24 95h-94l15 55h93l56 215h65l-56 -215h84l57 215h65l-57 -215h99l-15 -55h-98l-25 -95h100l-15 -55h-99l-56 -214h-64l55 214h-83l-55 -214h-65z" />
    <glyph glyph-name="Aacute" unicode="&#xc1;" horiz-adv-x="556" 
d="M175 278h204l-101 341h-2zM229 690h95l223 -690h-78l-69 213h-246l-67 -213h-78zM288 907h88l-67 -134h-63z" />
    <glyph glyph-name="Acircumflex" unicode="&#xc2;" horiz-adv-x="556" 
d="M175 278h204l-101 341h-2zM229 690h95l223 -690h-78l-69 213h-246l-67 -213h-78zM241 907h74l88 -134h-61l-63 83l-65 -83h-61z" />
    <glyph glyph-name="Adieresis" unicode="&#xc4;" horiz-adv-x="556" 
d="M175 278h204l-101 341h-2zM229 690h95l223 -690h-78l-69 213h-246l-67 -213h-78zM321 872h90v-88h-90v88zM145 872h90v-88h-90v88z" />
    <glyph glyph-name="Agrave" unicode="&#xc0;" horiz-adv-x="556" 
d="M175 278h204l-101 341h-2zM229 690h95l223 -690h-78l-69 213h-246l-67 -213h-78zM179 907h88l42 -134h-63z" />
    <glyph glyph-name="Aring" unicode="&#xc5;" horiz-adv-x="556" 
d="M175 278h204l-101 341h-2zM229 690h95l223 -690h-78l-69 213h-246l-67 -213h-78zM235 843q0 -18 12.5 -30.5t30.5 -12.5t30.5 12.5t12.5 30.5q0 17 -12.5 29.5t-30.5 12.5q-19 0 -31 -12.5t-12 -29.5zM278 757q-18 0 -33.5 7t-27.5 18.5t-18.5 27t-6.5 33.5t7 33.5t19 27
t27.5 18t33.5 6.5q35 0 60 -25t25 -60q0 -18 -7 -33.5t-18.5 -27t-27 -18.5t-33.5 -7z" />
    <glyph glyph-name="Atilde" unicode="&#xc3;" horiz-adv-x="556" 
d="M175 278h204l-101 341h-2zM229 690h95l223 -690h-78l-69 213h-246l-67 -213h-78zM159 773q0 15 2.5 35t8.5 41q8 25 23.5 31.5t22.5 6.5q15 0 31.5 -8.5t32 -18.5t30 -18.5t24.5 -8.5q8 0 12 5t6 12.5t2.5 15.5t0.5 14h42q0 -19 -2 -38.5t-8 -35t-17.5 -25.5t-30.5 -10
q-17 0 -34.5 8t-33.5 17.5t-29 17.5t-20 8t-11 -7t-6.5 -16t-3 -17t-0.5 -9h-42z" />
    <glyph glyph-name="Eacute" unicode="&#xc9;" horiz-adv-x="463" 
d="M85 690h334v-65h-256v-231h244v-65h-244v-264h265v-65h-343v690zM257 907h88l-67 -134h-63z" />
    <glyph glyph-name="Ecircumflex" unicode="&#xca;" horiz-adv-x="463" 
d="M85 690h334v-65h-256v-231h244v-65h-244v-264h265v-65h-343v690zM220 907h74l88 -134h-61l-63 83l-65 -83h-61z" />
    <glyph glyph-name="Edieresis" unicode="&#xcb;" horiz-adv-x="463" 
d="M85 690h334v-65h-256v-231h244v-65h-244v-264h265v-65h-343v690zM300 872h90v-88h-90v88zM124 872h90v-88h-90v88z" />
    <glyph glyph-name="Egrave" unicode="&#xc8;" horiz-adv-x="463" 
d="M85 690h334v-65h-256v-231h244v-65h-244v-264h265v-65h-343v690zM153 907h88l42 -134h-63z" />
    <glyph glyph-name="Iacute" unicode="&#xcd;" horiz-adv-x="259" 
d="M90 690h78v-690h-78v690zM141 907h88l-67 -134h-63z" />
    <glyph glyph-name="Icircumflex" unicode="&#xce;" horiz-adv-x="259" 
d="M90 690h78v-690h-78v690zM94 907h74l88 -134h-61l-63 83l-65 -83h-61z" />
    <glyph glyph-name="Idieresis" unicode="&#xcf;" horiz-adv-x="259" 
d="M90 690h78v-690h-78v690zM174 872h90v-88h-90v88zM-2 872h90v-88h-90v88z" />
    <glyph glyph-name="Igrave" unicode="&#xcc;" horiz-adv-x="259" 
d="M90 690h78v-690h-78v690zM32 907h88l42 -134h-63z" />
    <glyph glyph-name="Ntilde" unicode="&#xd1;" horiz-adv-x="630" 
d="M85 690h100l284 -583h2v583h74v-690h-100l-284 581h-2v-581h-74v690zM196 773q0 15 2.5 35t8.5 41q8 25 23.5 31.5t22.5 6.5q15 0 31.5 -8.5t32 -18.5t30 -18.5t24.5 -8.5q8 0 12 5t6 12.5t2.5 15.5t0.5 14h42q0 -19 -2 -38.5t-8 -35t-17.5 -25.5t-30.5 -10
q-17 0 -34.5 8t-33.5 17.5t-29 17.5t-20 8t-11 -7t-6.5 -16t-3 -17t-0.5 -9h-42z" />
    <glyph glyph-name="Oacute" unicode="&#xd3;" horiz-adv-x="593" 
d="M136 347q0 -47 5.5 -98.5t23 -94.5t49 -71.5t83.5 -28.5t83.5 28.5t48.5 71.5t22.5 94.5t5.5 98.5t-5.5 98t-22.5 93.5t-48.5 70t-83.5 27.5t-83.5 -27.5t-49 -70t-23 -93.5t-5.5 -98zM297 -11q-74 0 -122 31.5t-75.5 82t-38 114.5t-10.5 129q0 66 10.5 129.5t38 113.5
t75.5 81t122 31t121.5 -31t75 -81t38 -113.5t10.5 -129.5q0 -65 -10.5 -129t-38 -114.5t-75 -82t-121.5 -31.5zM307 907h88l-67 -134h-63z" />
    <glyph glyph-name="Ocircumflex" unicode="&#xd4;" horiz-adv-x="593" 
d="M136 347q0 -47 5.5 -98.5t23 -94.5t49 -71.5t83.5 -28.5t83.5 28.5t48.5 71.5t22.5 94.5t5.5 98.5t-5.5 98t-22.5 93.5t-48.5 70t-83.5 27.5t-83.5 -27.5t-49 -70t-23 -93.5t-5.5 -98zM297 -11q-74 0 -122 31.5t-75.5 82t-38 114.5t-10.5 129q0 66 10.5 129.5t38 113.5
t75.5 81t122 31t121.5 -31t75 -81t38 -113.5t10.5 -129.5q0 -65 -10.5 -129t-38 -114.5t-75 -82t-121.5 -31.5zM260 907h74l88 -134h-61l-63 83l-65 -83h-61z" />
    <glyph glyph-name="Odieresis" unicode="&#xd6;" horiz-adv-x="593" 
d="M136 347q0 -47 5.5 -98.5t23 -94.5t49 -71.5t83.5 -28.5t83.5 28.5t48.5 71.5t22.5 94.5t5.5 98.5t-5.5 98t-22.5 93.5t-48.5 70t-83.5 27.5t-83.5 -27.5t-49 -70t-23 -93.5t-5.5 -98zM297 -11q-74 0 -122 31.5t-75.5 82t-38 114.5t-10.5 129q0 66 10.5 129.5t38 113.5
t75.5 81t122 31t121.5 -31t75 -81t38 -113.5t10.5 -129.5q0 -65 -10.5 -129t-38 -114.5t-75 -82t-121.5 -31.5zM340 872h90v-88h-90v88zM164 872h90v-88h-90v88z" />
    <glyph glyph-name="Ograve" unicode="&#xd2;" horiz-adv-x="593" 
d="M136 347q0 -47 5.5 -98.5t23 -94.5t49 -71.5t83.5 -28.5t83.5 28.5t48.5 71.5t22.5 94.5t5.5 98.5t-5.5 98t-22.5 93.5t-48.5 70t-83.5 27.5t-83.5 -27.5t-49 -70t-23 -93.5t-5.5 -98zM297 -11q-74 0 -122 31.5t-75.5 82t-38 114.5t-10.5 129q0 66 10.5 129.5t38 113.5
t75.5 81t122 31t121.5 -31t75 -81t38 -113.5t10.5 -129.5q0 -65 -10.5 -129t-38 -114.5t-75 -82t-121.5 -31.5zM188 907h88l42 -134h-63z" />
    <glyph glyph-name="Otilde" unicode="&#xd5;" horiz-adv-x="593" 
d="M136 347q0 -47 5.5 -98.5t23 -94.5t49 -71.5t83.5 -28.5t83.5 28.5t48.5 71.5t22.5 94.5t5.5 98.5t-5.5 98t-22.5 93.5t-48.5 70t-83.5 27.5t-83.5 -27.5t-49 -70t-23 -93.5t-5.5 -98zM297 -11q-74 0 -122 31.5t-75.5 82t-38 114.5t-10.5 129q0 66 10.5 129.5t38 113.5
t75.5 81t122 31t121.5 -31t75 -81t38 -113.5t10.5 -129.5q0 -65 -10.5 -129t-38 -114.5t-75 -82t-121.5 -31.5zM178 773q0 15 2.5 35t8.5 41q8 25 23.5 31.5t22.5 6.5q15 0 31.5 -8.5t32 -18.5t30 -18.5t24.5 -8.5q8 0 12 5t6 12.5t2.5 15.5t0.5 14h42q0 -19 -2 -38.5
t-8 -35t-17.5 -25.5t-30.5 -10q-17 0 -34.5 8t-33.5 17.5t-29 17.5t-20 8t-11 -7t-6.5 -16t-3 -17t-0.5 -9h-42z" />
    <glyph glyph-name="Uacute" unicode="&#xda;" horiz-adv-x="593" 
d="M514 222q0 -34 -5.5 -74.5t-27.5 -76t-67 -59t-124 -23.5q-71 0 -112.5 23.5t-63.5 59t-28.5 76t-6.5 74.5v468h78v-453q0 -29 3 -61.5t16 -59.5t40.5 -44.5t76.5 -17.5q54 0 83 17.5t42.5 44.5t15.5 59.5t2 61.5v453h78v-468zM307 907h88l-67 -134h-63z" />
    <glyph glyph-name="Ucircumflex" unicode="&#xdb;" horiz-adv-x="593" 
d="M514 222q0 -34 -5.5 -74.5t-27.5 -76t-67 -59t-124 -23.5q-71 0 -112.5 23.5t-63.5 59t-28.5 76t-6.5 74.5v468h78v-453q0 -29 3 -61.5t16 -59.5t40.5 -44.5t76.5 -17.5q54 0 83 17.5t42.5 44.5t15.5 59.5t2 61.5v453h78v-468zM260 907h74l88 -134h-61l-63 83l-65 -83
h-61z" />
    <glyph glyph-name="Udieresis" unicode="&#xdc;" horiz-adv-x="593" 
d="M514 222q0 -34 -5.5 -74.5t-27.5 -76t-67 -59t-124 -23.5q-71 0 -112.5 23.5t-63.5 59t-28.5 76t-6.5 74.5v468h78v-453q0 -29 3 -61.5t16 -59.5t40.5 -44.5t76.5 -17.5q54 0 83 17.5t42.5 44.5t15.5 59.5t2 61.5v453h78v-468zM340 872h90v-88h-90v88zM164 872h90v-88
h-90v88z" />
    <glyph glyph-name="Ugrave" unicode="&#xd9;" horiz-adv-x="593" 
d="M514 222q0 -34 -5.5 -74.5t-27.5 -76t-67 -59t-124 -23.5q-71 0 -112.5 23.5t-63.5 59t-28.5 76t-6.5 74.5v468h78v-453q0 -29 3 -61.5t16 -59.5t40.5 -44.5t76.5 -17.5q54 0 83 17.5t42.5 44.5t15.5 59.5t2 61.5v453h78v-468zM198 907h88l42 -134h-63z" />
    <glyph glyph-name="Ydieresis" unicode="&#x178;" 
d="M210 318l-215 372h85l169 -293l172 293h85l-218 -372v-318h-78v318zM293 872h90v-88h-90v88zM117 872h90v-88h-90v88z" />
    <glyph glyph-name="aacute" unicode="&#xe1;" horiz-adv-x="463" 
d="M276 216q-19 0 -45.5 -4.5t-51 -15.5t-42 -31t-17.5 -50q0 -34 20.5 -51.5t46.5 -17.5q32 0 64 19.5t47 54.5q4 10 7.5 18.5t6 18.5t3.5 24t1 35h-40zM318 63h-2q-5 -9 -16 -21.5t-29 -24t-43 -20t-58 -8.5q-59 0 -93.5 34.5t-34.5 98.5q0 42 24 70t58.5 45.5t74 25
t70.5 7.5q13 0 24 0.5t23 2.5v22t-0.5 26.5t-1 25t-1.5 17.5q-4 20 -13 32.5t-21 20t-26 10.5t-27 3q-29 0 -47 -6.5t-28.5 -17.5t-15 -24.5t-6.5 -27.5h-76q0 22 8.5 46t28.5 43t52.5 31.5t81.5 12.5q55 0 87 -15.5t48.5 -38.5t20.5 -50t4 -49v-334h-66v63zM242 693h88
l-67 -134h-63z" />
    <glyph glyph-name="acircumflex" unicode="&#xe2;" horiz-adv-x="463" 
d="M276 216q-19 0 -45.5 -4.5t-51 -15.5t-42 -31t-17.5 -50q0 -34 20.5 -51.5t46.5 -17.5q32 0 64 19.5t47 54.5q4 10 7.5 18.5t6 18.5t3.5 24t1 35h-40zM318 63h-2q-5 -9 -16 -21.5t-29 -24t-43 -20t-58 -8.5q-59 0 -93.5 34.5t-34.5 98.5q0 42 24 70t58.5 45.5t74 25
t70.5 7.5q13 0 24 0.5t23 2.5v22t-0.5 26.5t-1 25t-1.5 17.5q-4 20 -13 32.5t-21 20t-26 10.5t-27 3q-29 0 -47 -6.5t-28.5 -17.5t-15 -24.5t-6.5 -27.5h-76q0 22 8.5 46t28.5 43t52.5 31.5t81.5 12.5q55 0 87 -15.5t48.5 -38.5t20.5 -50t4 -49v-334h-66v63zM195 693h74
l88 -134h-61l-63 83l-65 -83h-61z" />
    <glyph glyph-name="adieresis" unicode="&#xe4;" horiz-adv-x="463" 
d="M276 216q-19 0 -45.5 -4.5t-51 -15.5t-42 -31t-17.5 -50q0 -34 20.5 -51.5t46.5 -17.5q32 0 64 19.5t47 54.5q4 10 7.5 18.5t6 18.5t3.5 24t1 35h-40zM318 63h-2q-5 -9 -16 -21.5t-29 -24t-43 -20t-58 -8.5q-59 0 -93.5 34.5t-34.5 98.5q0 42 24 70t58.5 45.5t74 25
t70.5 7.5q13 0 24 0.5t23 2.5v22t-0.5 26.5t-1 25t-1.5 17.5q-4 20 -13 32.5t-21 20t-26 10.5t-27 3q-29 0 -47 -6.5t-28.5 -17.5t-15 -24.5t-6.5 -27.5h-76q0 22 8.5 46t28.5 43t52.5 31.5t81.5 12.5q55 0 87 -15.5t48.5 -38.5t20.5 -50t4 -49v-334h-66v63zM275 658h90v-88
h-90v88zM99 658h90v-88h-90v88z" />
    <glyph glyph-name="agrave" unicode="&#xe0;" horiz-adv-x="463" 
d="M276 216q-19 0 -45.5 -4.5t-51 -15.5t-42 -31t-17.5 -50q0 -34 20.5 -51.5t46.5 -17.5q32 0 64 19.5t47 54.5q4 10 7.5 18.5t6 18.5t3.5 24t1 35h-40zM318 63h-2q-5 -9 -16 -21.5t-29 -24t-43 -20t-58 -8.5q-59 0 -93.5 34.5t-34.5 98.5q0 42 24 70t58.5 45.5t74 25
t70.5 7.5q13 0 24 0.5t23 2.5v22t-0.5 26.5t-1 25t-1.5 17.5q-4 20 -13 32.5t-21 20t-26 10.5t-27 3q-29 0 -47 -6.5t-28.5 -17.5t-15 -24.5t-6.5 -27.5h-76q0 22 8.5 46t28.5 43t52.5 31.5t81.5 12.5q55 0 87 -15.5t48.5 -38.5t20.5 -50t4 -49v-334h-66v63zM133 693h88
l42 -134h-63z" />
    <glyph glyph-name="aring" unicode="&#xe5;" horiz-adv-x="463" 
d="M276 216q-19 0 -45.5 -4.5t-51 -15.5t-42 -31t-17.5 -50q0 -34 20.5 -51.5t46.5 -17.5q32 0 64 19.5t47 54.5q4 10 7.5 18.5t6 18.5t3.5 24t1 35h-40zM318 63h-2q-5 -9 -16 -21.5t-29 -24t-43 -20t-58 -8.5q-59 0 -93.5 34.5t-34.5 98.5q0 42 24 70t58.5 45.5t74 25
t70.5 7.5q13 0 24 0.5t23 2.5v22t-0.5 26.5t-1 25t-1.5 17.5q-4 20 -13 32.5t-21 20t-26 10.5t-27 3q-29 0 -47 -6.5t-28.5 -17.5t-15 -24.5t-6.5 -27.5h-76q0 22 8.5 46t28.5 43t52.5 31.5t81.5 12.5q55 0 87 -15.5t48.5 -38.5t20.5 -50t4 -49v-334h-66v63zM189 629
q0 -18 12.5 -30.5t30.5 -12.5t30.5 12.5t12.5 30.5q0 17 -12.5 29.5t-30.5 12.5q-19 0 -31 -12.5t-12 -29.5zM232 543q-18 0 -33.5 7t-27.5 18.5t-18.5 27t-6.5 33.5t7 33.5t19 27t27.5 18t33.5 6.5q35 0 60 -25t25 -60q0 -18 -7 -33.5t-18.5 -27t-27 -18.5t-33.5 -7z" />
    <glyph glyph-name="atilde" unicode="&#xe3;" horiz-adv-x="463" 
d="M276 216q-19 0 -45.5 -4.5t-51 -15.5t-42 -31t-17.5 -50q0 -34 20.5 -51.5t46.5 -17.5q32 0 64 19.5t47 54.5q4 10 7.5 18.5t6 18.5t3.5 24t1 35h-40zM318 63h-2q-5 -9 -16 -21.5t-29 -24t-43 -20t-58 -8.5q-59 0 -93.5 34.5t-34.5 98.5q0 42 24 70t58.5 45.5t74 25
t70.5 7.5q13 0 24 0.5t23 2.5v22t-0.5 26.5t-1 25t-1.5 17.5q-4 20 -13 32.5t-21 20t-26 10.5t-27 3q-29 0 -47 -6.5t-28.5 -17.5t-15 -24.5t-6.5 -27.5h-76q0 22 8.5 46t28.5 43t52.5 31.5t81.5 12.5q55 0 87 -15.5t48.5 -38.5t20.5 -50t4 -49v-334h-66v63zM113 559
q0 15 2.5 35t8.5 41q8 25 23.5 31.5t22.5 6.5q15 0 31.5 -8.5t32 -18.5t30 -18.5t24.5 -8.5q8 0 12 5t6 12.5t2.5 15.5t0.5 14h42q0 -19 -2 -38.5t-8 -35t-17.5 -25.5t-30.5 -10q-17 0 -34.5 8t-33.5 17.5t-29 17.5t-20 8t-11 -7t-6.5 -16t-3 -17t-0.5 -9h-42z" />
    <glyph glyph-name="eacute" unicode="&#xe9;" horiz-adv-x="444" 
d="M322 340q0 12 -4.5 27.5t-15 29.5t-28 23.5t-43.5 9.5q-27 0 -45 -9.5t-29.5 -23.5t-17.5 -29.5t-8 -27.5h191zM389 3q-45 -14 -109 -14q-111 0 -171.5 66t-60.5 199q0 53 11 96t34 73.5t58 47t83 16.5q42 0 73 -13.5t52 -38t31 -57.5t10 -72v-23h-274v-28q0 -27 7 -63
t26 -68.5t52 -55t84 -22.5q20 0 34 1.5t24.5 3.5t19 4t16.5 4v-56zM242 693h88l-67 -134h-63z" />
    <glyph glyph-name="ecircumflex" unicode="&#xea;" horiz-adv-x="444" 
d="M322 340q0 12 -4.5 27.5t-15 29.5t-28 23.5t-43.5 9.5q-27 0 -45 -9.5t-29.5 -23.5t-17.5 -29.5t-8 -27.5h191zM389 3q-45 -14 -109 -14q-111 0 -171.5 66t-60.5 199q0 53 11 96t34 73.5t58 47t83 16.5q42 0 73 -13.5t52 -38t31 -57.5t10 -72v-23h-274v-28q0 -27 7 -63
t26 -68.5t52 -55t84 -22.5q20 0 34 1.5t24.5 3.5t19 4t16.5 4v-56zM185 693h74l88 -134h-61l-63 83l-65 -83h-61z" />
    <glyph glyph-name="edieresis" unicode="&#xeb;" horiz-adv-x="444" 
d="M322 340q0 12 -4.5 27.5t-15 29.5t-28 23.5t-43.5 9.5q-27 0 -45 -9.5t-29.5 -23.5t-17.5 -29.5t-8 -27.5h191zM389 3q-45 -14 -109 -14q-111 0 -171.5 66t-60.5 199q0 53 11 96t34 73.5t58 47t83 16.5q42 0 73 -13.5t52 -38t31 -57.5t10 -72v-23h-274v-28q0 -27 7 -63
t26 -68.5t52 -55t84 -22.5q20 0 34 1.5t24.5 3.5t19 4t16.5 4v-56zM265 658h90v-88h-90v88zM89 658h90v-88h-90v88z" />
    <glyph glyph-name="egrave" unicode="&#xe8;" horiz-adv-x="444" 
d="M322 340q0 12 -4.5 27.5t-15 29.5t-28 23.5t-43.5 9.5q-27 0 -45 -9.5t-29.5 -23.5t-17.5 -29.5t-8 -27.5h191zM389 3q-45 -14 -109 -14q-111 0 -171.5 66t-60.5 199q0 53 11 96t34 73.5t58 47t83 16.5q42 0 73 -13.5t52 -38t31 -57.5t10 -72v-23h-274v-28q0 -27 7 -63
t26 -68.5t52 -55t84 -22.5q20 0 34 1.5t24.5 3.5t19 4t16.5 4v-56zM123 693h88l42 -134h-63z" />
    <glyph glyph-name="iacute" unicode="&#xed;" horiz-adv-x="241" 
d="M87 476h68v-476h-68v476zM132 693h88l-67 -134h-63z" />
    <glyph glyph-name="icircumflex" unicode="&#xee;" horiz-adv-x="241" 
d="M87 476h68v-476h-68v476zM85 693h74l88 -134h-61l-63 83l-65 -83h-61z" />
    <glyph glyph-name="idieresis" unicode="&#xef;" horiz-adv-x="241" 
d="M87 476h68v-476h-68v476zM165 658h90v-88h-90v88zM-11 658h90v-88h-90v88z" />
    <glyph glyph-name="igrave" unicode="&#xec;" horiz-adv-x="241" 
d="M87 476h68v-476h-68v476zM23 693h88l42 -134h-63z" />
    <glyph glyph-name="ntilde" unicode="&#xf1;" 
d="M80 476h68v-110h2q5 15 14 35.5t25.5 39.5t43 32.5t66.5 13.5q30 0 53 -12t38.5 -32t23 -46.5t7.5 -56.5v-340h-68v264q0 31 -1 59t-7.5 49.5t-21 34t-40.5 12.5q-34 0 -59 -23t-42 -56.5t-25.5 -72.5t-8.5 -71v-196h-68v476zM131 559q0 15 2.5 35t8.5 41q8 25 23.5 31.5
t22.5 6.5q15 0 31.5 -8.5t32 -18.5t30 -18.5t24.5 -8.5q8 0 12 5t6 12.5t2.5 15.5t0.5 14h42q0 -19 -2 -38.5t-8 -35t-17.5 -25.5t-30.5 -10q-17 0 -34.5 8t-33.5 17.5t-29 17.5t-20 8t-11 -7t-6.5 -16t-3 -17t-0.5 -9h-42z" />
    <glyph glyph-name="oacute" unicode="&#xf3;" horiz-adv-x="481" 
d="M124 238q0 -91 29 -141.5t87 -50.5q59 0 88.5 50.5t29.5 141.5q0 90 -29.5 141t-88.5 51q-58 0 -87 -51t-29 -141zM240 -11q-53 0 -89.5 19t-60 52.5t-34 79t-10.5 97.5t10.5 97.5t34 79.5t60 53.5t89.5 19.5t90 -19.5t60.5 -53.5t34.5 -79.5t11 -97.5t-11 -97.5
t-34.5 -79t-60.5 -52.5t-90 -19zM251 693h88l-67 -134h-63z" />
    <glyph glyph-name="ocircumflex" unicode="&#xf4;" horiz-adv-x="481" 
d="M124 238q0 -91 29 -141.5t87 -50.5q59 0 88.5 50.5t29.5 141.5q0 90 -29.5 141t-88.5 51q-58 0 -87 -51t-29 -141zM240 -11q-53 0 -89.5 19t-60 52.5t-34 79t-10.5 97.5t10.5 97.5t34 79.5t60 53.5t89.5 19.5t90 -19.5t60.5 -53.5t34.5 -79.5t11 -97.5t-11 -97.5
t-34.5 -79t-60.5 -52.5t-90 -19zM204 693h74l88 -134h-61l-63 83l-65 -83h-61z" />
    <glyph glyph-name="odieresis" unicode="&#xf6;" horiz-adv-x="481" 
d="M124 238q0 -91 29 -141.5t87 -50.5q59 0 88.5 50.5t29.5 141.5q0 90 -29.5 141t-88.5 51q-58 0 -87 -51t-29 -141zM240 -11q-53 0 -89.5 19t-60 52.5t-34 79t-10.5 97.5t10.5 97.5t34 79.5t60 53.5t89.5 19.5t90 -19.5t60.5 -53.5t34.5 -79.5t11 -97.5t-11 -97.5
t-34.5 -79t-60.5 -52.5t-90 -19zM284 658h90v-88h-90v88zM108 658h90v-88h-90v88z" />
    <glyph glyph-name="ograve" unicode="&#xf2;" horiz-adv-x="481" 
d="M124 238q0 -91 29 -141.5t87 -50.5q59 0 88.5 50.5t29.5 141.5q0 90 -29.5 141t-88.5 51q-58 0 -87 -51t-29 -141zM240 -11q-53 0 -89.5 19t-60 52.5t-34 79t-10.5 97.5t10.5 97.5t34 79.5t60 53.5t89.5 19.5t90 -19.5t60.5 -53.5t34.5 -79.5t11 -97.5t-11 -97.5
t-34.5 -79t-60.5 -52.5t-90 -19zM142 693h88l42 -134h-63z" />
    <glyph glyph-name="otilde" unicode="&#xf5;" horiz-adv-x="481" 
d="M124 238q0 -91 29 -141.5t87 -50.5q59 0 88.5 50.5t29.5 141.5q0 90 -29.5 141t-88.5 51q-58 0 -87 -51t-29 -141zM240 -11q-53 0 -89.5 19t-60 52.5t-34 79t-10.5 97.5t10.5 97.5t34 79.5t60 53.5t89.5 19.5t90 -19.5t60.5 -53.5t34.5 -79.5t11 -97.5t-11 -97.5
t-34.5 -79t-60.5 -52.5t-90 -19zM122 559q0 15 2.5 35t8.5 41q8 25 23.5 31.5t22.5 6.5q15 0 31.5 -8.5t32 -18.5t30 -18.5t24.5 -8.5q8 0 12 5t6 12.5t2.5 15.5t0.5 14h42q0 -19 -2 -38.5t-8 -35t-17.5 -25.5t-30.5 -10q-17 0 -34.5 8t-33.5 17.5t-29 17.5t-20 8t-11 -7
t-6.5 -16t-3 -17t-0.5 -9h-42z" />
    <glyph glyph-name="uacute" unicode="&#xfa;" 
d="M348 110h-2q-5 -15 -13.5 -35.5t-25 -39.5t-43 -32.5t-66.5 -13.5q-31 0 -54 12t-38 32t-22.5 46.5t-7.5 56.5v340h68v-264q0 -31 1 -59t7.5 -49.5t21 -34t40.5 -12.5q34 0 59 22.5t41.5 56.5t25 73t8.5 71v196h68v-476h-68v110zM260 693h88l-67 -134h-63z" />
    <glyph glyph-name="ucircumflex" unicode="&#xfb;" 
d="M348 110h-2q-5 -15 -13.5 -35.5t-25 -39.5t-43 -32.5t-66.5 -13.5q-31 0 -54 12t-38 32t-22.5 46.5t-7.5 56.5v340h68v-264q0 -31 1 -59t7.5 -49.5t21 -34t40.5 -12.5q34 0 59 22.5t41.5 56.5t25 73t8.5 71v196h68v-476h-68v110zM213 693h74l88 -134h-61l-63 83l-65 -83
h-61z" />
    <glyph glyph-name="udieresis" unicode="&#xfc;" 
d="M348 110h-2q-5 -15 -13.5 -35.5t-25 -39.5t-43 -32.5t-66.5 -13.5q-31 0 -54 12t-38 32t-22.5 46.5t-7.5 56.5v340h68v-264q0 -31 1 -59t7.5 -49.5t21 -34t40.5 -12.5q34 0 59 22.5t41.5 56.5t25 73t8.5 71v196h68v-476h-68v110zM298 658h90v-88h-90v88zM122 658h90v-88
h-90v88z" />
    <glyph glyph-name="ugrave" unicode="&#xf9;" 
d="M348 110h-2q-5 -15 -13.5 -35.5t-25 -39.5t-43 -32.5t-66.5 -13.5q-31 0 -54 12t-38 32t-22.5 46.5t-7.5 56.5v340h68v-264q0 -31 1 -59t7.5 -49.5t21 -34t40.5 -12.5q34 0 59 22.5t41.5 56.5t25 73t8.5 71v196h68v-476h-68v110zM161 693h88l42 -134h-63z" />
    <glyph glyph-name="ydieresis" unicode="&#xff;" horiz-adv-x="426" 
d="M188 0l-182 476h73l139 -374h2l128 374h73l-230 -669h-70zM256 658h90v-88h-90v88zM80 658h90v-88h-90v88z" />
    <glyph glyph-name="exclam" unicode="!" horiz-adv-x="278" 
d="M127 98h98v-98h-98v98zM135 690h82l-7 -503h-68z" />
    <glyph glyph-name="quotedbl" unicode="&#x22;" horiz-adv-x="352" 
d="M204 690h91l-17 -215h-58zM57 690h91l-16 -215h-58z" />
    <glyph glyph-name="Lslash" unicode="&#x141;" horiz-adv-x="407" 
d="M87 286l-87 -74v58l87 74v346h78v-277l110 96v-58l-110 -96v-290h245v-65h-323v286z" />
    <glyph glyph-name="lslash" unicode="&#x142;" horiz-adv-x="241" 
d="M88 326l-88 -76v55l88 76v309h68v-250l85 74v-54l-85 -75v-385h-68v326z" />
    <glyph glyph-name="threequarters" unicode="&#xbe;" horiz-adv-x="815" 
d="M39 545q0 13 6 30.5t21 33t39.5 26t61.5 10.5q54 0 88.5 -29.5t34.5 -81.5q0 -26 -5.5 -43t-14.5 -28t-20 -18t-22 -13q13 -5 25.5 -12.5t22.5 -20.5t16 -32.5t6 -49.5q0 -58 -35.5 -88.5t-95.5 -30.5q-40 0 -66 10.5t-41.5 25.5t-21.5 33t-6 33h64q0 -9 3 -18.5
t11 -17.5t21 -13t33 -5q74 0 74 76q0 27 -6.5 43t-18 25t-25.5 12.5t-29 4.5h-15v48h15q33 0 52 19t19 54q0 32 -15.5 50.5t-50.5 18.5q-18 0 -30.5 -5.5t-19.5 -13.5t-10 -17t-3 -16h-62zM483 634h57l-208 -634h-57zM553 168h119v193h-2zM672 120h-177v45l173 268h60v-265
h73v-48h-73v-120h-56v120z" />
    <glyph glyph-name="onequarter" unicode="&#xbc;" horiz-adv-x="815" 
d="M553 168h119v193h-2zM672 120h-177v45l173 268h60v-265h73v-48h-73v-120h-56v120zM170 574l-81 -54v58l91 56h46v-432h-56v372zM483 634h57l-208 -634h-57z" />
    <glyph glyph-name="onesuperior" unicode="&#xb9;" horiz-adv-x="352" 
d="M170 574l-81 -54v58l91 56h46v-429h-56v369z" />
    <glyph glyph-name="multiply" unicode="&#xd7;" horiz-adv-x="574" 
d="M54 46l184 188l-181 188l53 53l179 -185l180 185l47 -45l-180 -189l183 -189l-55 -52l-183 189l-180 -189z" />
    <glyph glyph-name="Thorn" unicode="&#xde;" horiz-adv-x="574" 
d="M159 229h151q22 0 46 3t44 16t33 39.5t13 72.5q0 45 -13 70.5t-33 38.5t-44 17t-46 6h-151v-263zM81 690h78v-133h166q103 0 154.5 -45.5t51.5 -149.5q0 -57 -13 -95.5t-39 -61t-64.5 -32t-89.5 -9.5h-166v-164h-78v690z" />
    <glyph glyph-name="brokenbar" unicode="&#xa6;" horiz-adv-x="259" 
d="M95 761h68v-359h-68v359zM95 223h68v-359h-68v359z" />
    <glyph glyph-name="Eth" unicode="&#xd0;" horiz-adv-x="574" 
d="M163 65h53q56 0 98 11.5t69.5 43t41 86t13.5 140.5q0 91 -16.5 146t-46.5 84.5t-72.5 39t-95.5 9.5h-44v-238h147v-50h-147v-272zM85 337h-85v50h85v303h166q75 0 126.5 -24.5t84 -69.5t47 -108t14.5 -141q0 -113 -23.5 -181t-66 -105t-101 -49t-128.5 -12h-119v337z" />
    <glyph glyph-name="onehalf" unicode="&#xbd;" horiz-adv-x="815" 
d="M505 47q15 12 47.5 42t65.5 69t58 83t25 83q0 29 -15.5 50t-50.5 21q-36 0 -52 -20.5t-16 -43.5h-62q1 15 7 34t21 35.5t40.5 28t64.5 11.5q55 0 89 -32.5t34 -88.5q0 -31 -12 -61.5t-30 -58.5t-40 -53t-42 -45t-35.5 -33.5t-20.5 -19.5h186v-48h-262v47zM170 574
l-81 -54v58l91 56h46v-432h-56v372zM462 634h57l-207 -634h-57z" />
    <glyph glyph-name="minus" unicode="&#x2212;" horiz-adv-x="574" 
d="M56 274h462v-61h-462v61z" />
    <glyph glyph-name="eth" unicode="&#xf0;" 
d="M125 238q0 -91 31 -141.5t94 -50.5t94 50.5t31 141.5q0 90 -31 141t-94 51t-94 -51t-31 -141zM309 575q40 -38 68 -79.5t44.5 -85t24 -87.5t7.5 -86q0 -52 -11.5 -97.5t-36 -79t-63 -52.5t-92.5 -19q-55 0 -93.5 19t-63 52.5t-35.5 79t-11 97.5t11 97.5t35.5 79.5
t63 53.5t93.5 19.5q50 0 80 -35l2 2q-5 9 -13.5 21t-20.5 25.5t-26 26.5t-28 24l-90 -36l-16 39l66 27q-21 14 -47.5 28t-53.5 25h125q11 -7 21.5 -13t21.5 -14l79 32l17 -40z" />
    <glyph glyph-name="thorn" unicode="&#xfe;" horiz-adv-x="463" 
d="M135 240q0 -33 6 -67.5t19.5 -62.5t35 -46t51.5 -18t49 18.5t30 47.5t15 65.5t4 71.5q0 22 -2.5 53t-12 59.5t-29.5 48.5t-55 20q-28 0 -49 -18.5t-34.5 -47t-20.5 -62t-7 -62.5zM67 690h68v-295h2q5 12 14.5 28t24.5 30.5t37.5 24t53.5 9.5q46 0 76 -21t48 -54.5
t25 -76.5t7 -86q0 -67 -12 -116t-33 -81t-50.5 -47.5t-64.5 -15.5q-31 0 -52.5 9t-36.5 22.5t-24 29t-13 28.5h-2v-292h-68v904z" />
    <glyph glyph-name="twosuperior" unicode="&#xb2;" horiz-adv-x="352" 
d="M42 252q15 12 47 42t65 69t58 83t25 83q0 26 -15.5 47t-50.5 21q-37 0 -52.5 -19t-15.5 -42h-62q1 15 7 34t21 35.5t40.5 28t64.5 11.5q55 0 89 -32.5t34 -89.5q0 -31 -11.5 -61t-30 -58.5t-40 -53t-41.5 -44.5t-35.5 -33.5t-20.5 -19.5h185v-48h-261v47z" />
    <glyph glyph-name="threesuperior" unicode="&#xb3;" horiz-adv-x="352" 
d="M39 545q0 13 6 30.5t21 33t39.5 26t61.5 10.5q54 0 88.5 -29.5t34.5 -81.5q0 -26 -5.5 -43t-14.5 -28t-20 -18t-22 -13q13 -5 25.5 -12.5t22.5 -20.5t16 -32.5t6 -49.5q0 -58 -35.5 -88.5t-95.5 -30.5q-40 0 -66 10.5t-41.5 25.5t-21.5 33t-6 33h64q0 -9 3 -18.5
t11 -17.5t21 -13t33 -5q74 0 74 76q0 27 -6.5 43t-18 25t-25.5 12.5t-29 4.5h-15v48h15q33 0 52 19t19 54q0 32 -15.5 50.5t-50.5 18.5q-18 0 -30.5 -5.5t-19.5 -13.5t-10 -17t-3 -16h-62z" />
    <glyph glyph-name="Scaron" unicode="&#x160;" horiz-adv-x="481" 
d="M303 373q26 -15 52 -31t47 -38t34 -51t13 -70q0 -54 -20 -91t-53.5 -60t-77.5 -33t-92 -10q-28 0 -53.5 2.5t-47 6.5t-36.5 7t-22 5v80q6 -2 21 -8t37 -12t50 -11t60 -5t59 7.5t47 22.5t31.5 37t11.5 51t-10 50t-26 36.5t-37 28t-42 24.5l-61 34q-24 13 -50.5 28
t-48 35.5t-36 48.5t-14.5 67q0 45 17 78t46.5 55t70 33t88.5 11q50 0 88 -7t56 -11v-77q-6 3 -20 8t-34 10t-44.5 8.5t-52.5 3.5q-60 0 -95 -28.5t-35 -76.5q0 -23 10.5 -41t27 -32.5t37 -26.5t40.5 -23zM116 907h61l65 -84l63 84h61l-88 -134h-74z" />
    <glyph glyph-name="Yacute" unicode="&#xdd;" 
d="M210 318l-215 372h85l169 -293l172 293h85l-218 -372v-318h-78v318zM260 907h88l-67 -134h-63z" />
    <glyph glyph-name="Zcaron" unicode="&#x17d;" horiz-adv-x="481" 
d="M24 67l332 558h-315v65h401v-67l-331 -558h345v-65h-432v67zM116 907h61l65 -84l63 84h61l-88 -134h-74z" />
    <glyph glyph-name="scaron" unicode="&#x161;" horiz-adv-x="370" 
d="M233 269q19 -10 38.5 -21t35.5 -26t26.5 -36.5t10.5 -52.5q0 -72 -46.5 -108t-130.5 -36q-47 0 -81.5 7.5t-48.5 12.5v62q4 -2 16.5 -6t29.5 -8t37 -7.5t40 -3.5q25 0 46 4.5t36.5 13.5t24.5 23.5t9 35.5q0 18 -9.5 31.5t-23 23.5t-28.5 17.5t-25 13.5l-43 23
q-17 9 -35.5 19.5t-35 25t-27 35t-10.5 49.5q0 58 41.5 92t121.5 34q38 0 66.5 -6t45.5 -10v-63q-12 5 -43.5 13.5t-67.5 8.5q-44 0 -70 -18t-26 -44q0 -15 8 -25.5t20.5 -19t28 -16t29.5 -14.5zM55 693h61l65 -84l63 84h61l-88 -134h-74z" />
    <glyph glyph-name="yacute" unicode="&#xfd;" horiz-adv-x="426" 
d="M188 0l-182 476h73l139 -374h2l128 374h73l-230 -669h-70zM223 693h88l-67 -134h-63z" />
    <glyph glyph-name="zcaron" unicode="&#x17e;" horiz-adv-x="407" 
d="M31 56l249 363h-231v57h314v-58l-248 -361h257v-57h-341v56zM79 693h61l65 -84l63 84h61l-88 -134h-74z" />
  </font>
</defs>
</svg>
