<?xml version="1.0" standalone="no"?>
<!DOCTYPE svg PUBLIC "-//W3C//DTD SVG 1.1//EN" "http://www.w3.org/Graphics/SVG/1.1/DTD/svg11.dtd" >
<svg>
<metadata>
Created by FontForge 20110222 at Wed May 29 04:14:51 2013
 By Orthosie Webhosting
Copyright (c) 1990 Adobe Systems Incorporated.  All Rights Reserved.Rotis is a trademark of Agfa Corporation.
</metadata>
<defs>
<font id="RotisSansSerif-Bold" horiz-adv-x="500" >
  <font-face 
    font-family="RotisSansSerif"
    font-weight="700"
    font-stretch="normal"
    units-per-em="1000"
    panose-1="2 0 8 3 5 0 0 2 0 3"
    ascent="800"
    descent="-200"
    x-height="476"
    cap-height="690"
    bbox="-56 -257 1196 971"
    underline-thickness="50"
    underline-position="-50"
    unicode-range="U+0020-FB02"
  />
<missing-glyph horiz-adv-x="296" 
 />
    <glyph glyph-name="fi" unicode="fi" horiz-adv-x="593" 
d="M409 690h108v-102h-108v102zM419 476h90v-476h-90v476zM111 406h-87v70h87v55q0 170 182 170q23 0 48 -2t48 -7v-75q-21 6 -43.5 10t-51.5 4q-27 0 -45 -10t-28.5 -25t-15 -34t-4.5 -37v-49h142v-70h-142v-406h-90v406z" />
    <glyph glyph-name="fl" unicode="fl" horiz-adv-x="593" 
d="M419 690h90v-690h-90v690zM111 406h-87v70h87v55q0 170 182 170q23 0 48 -2t48 -7v-75q-21 6 -43.5 10t-51.5 4q-27 0 -45 -10t-28.5 -25t-15 -34t-4.5 -37v-49h142v-70h-142v-406h-90v406z" />
    <glyph glyph-name=".notdef" horiz-adv-x="296" 
 />
    <glyph glyph-name=".null" horiz-adv-x="0" 
 />
    <glyph glyph-name="nonmarkingreturn" horiz-adv-x="296" 
 />
    <glyph glyph-name="space" unicode=" " horiz-adv-x="296" 
 />
    <glyph glyph-name="space" unicode="&#xa0;" horiz-adv-x="296" 
 />
    <glyph glyph-name="dollar" unicode="$" horiz-adv-x="574" 
d="M318 49q42 5 64 31.5t22 77.5q0 31 -6.5 53t-18 37.5t-27.5 25.5t-34 18v-243zM258 609q-39 -8 -54.5 -35.5t-15.5 -62.5q0 -32 8 -53.5t19 -35.5t23 -21t20 -11v219zM258 -11q-104 4 -151.5 43t-54.5 113h125q0 -41 19 -66t62 -30v268q-34 10 -69 23t-63 33.5
t-45.5 50.5t-17.5 75q0 51 21 83.5t51 51.5t63.5 26.5t59.5 8.5v81h60v-81q46 -3 82 -18.5t60.5 -37.5t37.5 -48.5t13 -52.5h-125q-1 14 -3 29t-8.5 28t-19.5 23.5t-37 16.5v-242q16 -6 38 -12.5t45.5 -16t46.5 -23t41 -34t29 -48.5t11 -66q0 -56 -20.5 -90t-51.5 -52.5
t-68 -25.5t-71 -10v-91h-60v91z" />
    <glyph glyph-name="percent" unicode="%" horiz-adv-x="852" 
d="M504 634h78l-234 -634h-78zM581 213q0 -31 3 -62t12 -56t26 -40.5t45 -15.5t45.5 15.5t26.5 40.5t12 56t3 62q0 30 -3 61t-12 56t-26.5 40.5t-45.5 15.5t-45 -15.5t-26 -40.5t-12 -56t-3 -61zM667 -11q-47 0 -77.5 19t-48.5 50t-25 71.5t-7 83.5t7 83t25 71t48.5 50
t77.5 19t78 -19t49 -50t25 -71t7 -83t-7 -83.5t-25 -71.5t-49 -50t-78 -19zM99 422q0 -31 3 -62t12 -56t26 -40.5t45 -15.5t45.5 15.5t26.5 40.5t12 56t3 62q0 30 -3 61t-12 56t-26.5 40.5t-45.5 15.5t-45 -15.5t-26 -40.5t-12 -56t-3 -61zM185 198q-47 0 -77.5 19t-48.5 50
t-25 71t-7 83t7 83.5t25 71.5t48.5 50t77.5 19t78 -19t49 -50t25 -71.5t7 -83.5t-7 -83t-25 -71t-49 -50t-78 -19z" />
    <glyph glyph-name="ampersand" unicode="&#x26;" horiz-adv-x="667" 
d="M376 3q-23 -7 -51.5 -10.5t-54.5 -3.5q-47 0 -87 10.5t-69 33t-45.5 58t-16.5 85.5q0 48 12.5 79.5t32 50.5t43 28.5t44.5 14.5v2q-16 5 -37 13t-39.5 24t-31.5 42t-13 68q0 48 17.5 80.5t45.5 52t64 27.5t73 8q27 0 55 -4.5t52 -12.5v-71q-15 7 -40 16t-57 9
q-51 0 -75.5 -33t-24.5 -78q0 -34 11.5 -55t27 -32t31.5 -15t24 -4h184v189l90 57v-246h122v-70h-122v-167q0 -14 2 -29.5t9 -29t21.5 -22.5t40.5 -9q24 0 49 7v-70q-20 -4 -36.5 -5.5t-34.5 -1.5q-72 0 -106.5 27.5t-34.5 94.5v205h-184q-8 0 -25 -3t-35 -16t-31.5 -40.5
t-13.5 -75.5q0 -63 34.5 -92.5t87.5 -29.5q32 0 53.5 5t38.5 11v-72z" />
    <glyph glyph-name="quoteright" unicode="&#x2019;" horiz-adv-x="222" 
d="M63 690h115l-37 -228h-88z" />
    <glyph glyph-name="parenleft" unicode="(" horiz-adv-x="333" 
d="M311 -156q-93 9 -143 46.5t-73 97.5t-27 139.5t-4 172.5q0 59 1 114.5t8 104t22 89.5t42.5 71.5t69.5 50.5t104 26v-55q-53 -12 -81 -48.5t-41.5 -90t-15.5 -121t-2 -141.5q0 -72 2 -139t15.5 -121.5t41.5 -91.5t81 -49v-55z" />
    <glyph glyph-name="parenright" unicode=")" horiz-adv-x="333" 
d="M22 -101q52 12 80.5 48t41.5 90t15 121.5t2 141.5q0 78 -4.5 147.5t-19 123t-42 88t-73.5 42.5v55q92 -9 142 -46.5t73 -97.5t27 -139.5t4 -172.5q0 -89 -4 -168t-27 -140t-73 -100t-142 -48v55z" />
    <glyph glyph-name="asterisk" unicode="*" horiz-adv-x="315" 
d="M50 438l35 61l26 25l-2 2l-34 -10h-69v70h69l34 -10l2 2l-26 25l-35 63l61 35l36 -63l10 -35h2l8 35l36 63l60 -35l-35 -63l-25 -25l2 -2l35 10h69v-70h-69l-35 10l-2 -2l25 -25l35 -61l-60 -35l-36 60l-8 36h-2l-10 -36l-36 -60z" />
    <glyph glyph-name="plus" unicode="+" horiz-adv-x="593" 
d="M248 210h-189v89h189v188h97v-188h190v-89h-190v-210h-97v210z" />
    <glyph glyph-name="comma" unicode="," horiz-adv-x="222" 
d="M72 138h110l-42 -231h-83z" />
    <glyph glyph-name="hyphen" unicode="-" horiz-adv-x="463" 
d="M46 311h372v-107h-372v107z" />
    <glyph glyph-name="hyphen" unicode="&#xad;" horiz-adv-x="463" 
d="M46 311h372v-107h-372v107z" />
    <glyph glyph-name="period" unicode="." horiz-adv-x="241" 
d="M51 138h138v-138h-138v138z" />
    <glyph glyph-name="slash" unicode="/" horiz-adv-x="315" 
d="M219 761h106l-229 -897h-106z" />
    <glyph glyph-name="zero" unicode="0" horiz-adv-x="537" 
d="M137 317q0 -44 4.5 -90t18 -83.5t39.5 -61t69 -23.5q44 0 70 23.5t40 61t18.5 83.5t4.5 90t-4.5 89.5t-18.5 83t-40 61.5t-70 24q-43 0 -69 -24t-39.5 -61.5t-18 -83t-4.5 -89.5zM268 -11q-69 0 -113.5 28t-71 73.5t-36.5 104.5t-10 122t10 122t36.5 104.5t71 73.5
t113.5 28t114 -28t71.5 -73.5t37 -104.5t10.5 -122t-10.5 -122t-37 -104.5t-71.5 -73.5t-114 -28z" />
    <glyph glyph-name="one" unicode="1" horiz-adv-x="537" 
d="M248 544l-126 -76v87l142 79h84v-634h-100v544z" />
    <glyph glyph-name="two" unicode="2" horiz-adv-x="537" 
d="M53 73q21 17 51.5 44t64 61.5t67 73t60.5 78t43.5 78t16.5 71.5q0 41 -23 68.5t-74 27.5t-73 -27t-22 -60h-110q3 25 13 52.5t33 51t61.5 38.5t98.5 15q40 0 76 -11.5t62.5 -33t42 -54t15.5 -74.5q0 -67 -29.5 -125t-72.5 -108t-92 -92t-89 -77h288v-70h-408v73z" />
    <glyph glyph-name="three" unicode="3" horiz-adv-x="537" 
d="M55 499q1 28 14 54.5t38.5 47t63.5 32.5t89 12q38 0 72 -10.5t59.5 -31t40.5 -50.5t15 -68q0 -36 -8.5 -62t-23 -44t-33 -28.5t-37.5 -15.5v-2q22 -5 42.5 -16t36.5 -29t25.5 -45t9.5 -65q0 -97 -52.5 -143t-152.5 -46q-64 0 -105 15.5t-64.5 38t-32.5 48.5t-10 47h113
q0 -12 4.5 -26t15.5 -25.5t28.5 -19.5t44.5 -8q58 0 84.5 28.5t26.5 88.5q0 64 -32.5 91t-84.5 30h-26v70h26q51 0 78 29t27 75q0 49 -20.5 76.5t-71.5 27.5q-27 0 -44 -7t-27 -18.5t-14 -25t-5 -25.5h-110z" />
    <glyph glyph-name="four" unicode="4" horiz-adv-x="537" 
d="M128 235h180v294h-2zM308 165h-272v62l262 407h110v-399h109v-70h-109v-165h-100v165z" />
    <glyph glyph-name="five" unicode="5" horiz-adv-x="537" 
d="M192 357q17 13 43.5 22t66.5 9q47 0 83.5 -14.5t61 -41.5t37 -64.5t12.5 -83.5q0 -51 -17.5 -87.5t-47.5 -60.5t-69.5 -35.5t-84.5 -11.5q-64 0 -104.5 15.5t-64 38t-33 48.5t-10.5 48h110q0 -9 4.5 -23t16 -26.5t31 -21.5t49.5 -9q60 0 90 31t30 107q0 22 -5.5 43.5
t-19 39t-35 28t-52.5 10.5q-23 0 -39 -5t-26.5 -11.5t-17 -14.5t-10.5 -14h-99l18 361h339v-70h-248z" />
    <glyph glyph-name="six" unicode="6" horiz-adv-x="537" 
d="M284 59q33 0 55 10t34.5 27.5t17.5 41t5 49.5t-5.5 49t-18 40.5t-33.5 27.5t-51 10q-52 0 -80 -35t-28 -92q0 -25 6.5 -48t19.5 -41t32.5 -28.5t45.5 -10.5zM168 319q10 11 23 22.5t31 21t42 15.5t56 6q46 0 79 -15t54.5 -41.5t32 -63t10.5 -79.5q0 -94 -55.5 -145
t-149.5 -51q-72 0 -116 25.5t-67.5 70.5t-31.5 107t-8 134q0 63 8 120.5t32 101.5t67.5 70.5t114.5 26.5q58 0 95.5 -15.5t58.5 -38t29.5 -48.5t9.5 -46h-110q0 9 -3.5 22t-13 25.5t-26 21.5t-41.5 9q-26 0 -48 -10.5t-38 -35.5t-25.5 -68t-9.5 -107v-35z" />
    <glyph glyph-name="seven" unicode="7" horiz-adv-x="537" 
d="M359 564h-291v70h398v-76l-234 -558h-107z" />
    <glyph glyph-name="eight" unicode="8" horiz-adv-x="537" 
d="M158 176q0 -60 28 -88.5t83 -28.5q57 0 84 28.5t27 88.5q0 54 -25.5 87t-85.5 33q-55 0 -83 -31.5t-28 -88.5zM169 474q0 -54 26 -81t74 -27q100 0 100 108q0 47 -25.5 74t-74.5 27q-48 0 -74 -27t-26 -74zM269 -11q-57 0 -97 13t-65.5 36.5t-37 57t-11.5 75.5
q0 41 11 69t27.5 45.5t36.5 27.5t38 15v2q-13 4 -30.5 13t-33.5 26.5t-27 44.5t-11 67q0 43 15.5 74t42.5 51t63.5 29.5t78.5 9.5t78.5 -9.5t63.5 -29.5t42.5 -51t15.5 -74q0 -40 -10.5 -67t-26 -44.5t-33 -26.5t-32.5 -13v-2q17 -5 36.5 -15t36.5 -27.5t28.5 -45.5
t11.5 -69q0 -42 -11.5 -75.5t-36.5 -57t-65 -36.5t-98 -13z" />
    <glyph glyph-name="nine" unicode="9" horiz-adv-x="537" 
d="M145 448q0 -27 5.5 -50t18.5 -40t34 -27t51 -10q54 0 82.5 34.5t28.5 91.5q0 25 -6.5 48t-20 41t-33.5 28.5t-47 10.5q-34 0 -56 -10t-34.5 -27.5t-17.5 -40.5t-5 -49zM375 315q-10 -11 -23 -22.5t-31 -20.5t-42 -15t-56 -6q-46 0 -79.5 15t-55 41.5t-32 63t-10.5 79.5
q0 94 55.5 144.5t150.5 50.5q72 0 116 -25.5t67.5 -70.5t31.5 -107t8 -134q0 -62 -8 -120t-32 -102t-68 -70.5t-115 -26.5q-58 0 -95 15.5t-58 38t-30 48.5t-10 46h111q0 -9 3.5 -22t13 -25.5t25.5 -21.5t41 -9q26 0 48 10.5t38.5 35.5t26 67.5t9.5 107.5v35z" />
    <glyph glyph-name="colon" unicode=":" horiz-adv-x="296" 
d="M116 138h138v-138h-138v138zM116 476h138v-138h-138v138z" />
    <glyph glyph-name="semicolon" unicode=";" horiz-adv-x="278" 
d="M110 476h138v-138h-138v138zM120 138h125l-53 -231h-83z" />
    <glyph glyph-name="semicolon" unicode="&#x37e;" horiz-adv-x="278" 
d="M110 476h138v-138h-138v138zM120 138h125l-53 -231h-83z" />
    <glyph glyph-name="less" unicode="&#x3c;" horiz-adv-x="593" 
d="M58 198v91l477 197v-91l-385 -152l385 -152v-91z" />
    <glyph glyph-name="equal" unicode="=" horiz-adv-x="593" 
d="M58 388h477v-89h-477v89zM58 210h477v-89h-477v89z" />
    <glyph glyph-name="greater" unicode="&#x3e;" horiz-adv-x="593" 
d="M58 91l386 152l-386 152v91l477 -197v-91l-477 -198v91z" />
    <glyph glyph-name="question" unicode="?" horiz-adv-x="444" 
d="M126 121h124v-121h-124v121zM143 244q0 29 2.5 46.5t9 31.5t19 28t33.5 35l59 60q20 20 39.5 42.5t19.5 53.5q0 44 -31.5 64t-76.5 20q-19 0 -39 -3.5t-39 -8.5t-35.5 -12t-28.5 -13v94q8 2 23.5 5t35 6t41.5 5.5t43 2.5q44 0 82 -10t66 -29.5t44 -48.5t16 -68
q0 -32 -10 -56t-24 -42.5t-29 -32.5t-26 -25l-42 -42q-17 -17 -28.5 -29t-18.5 -24.5t-9.5 -28.5t-2.5 -41v-27h-93v47z" />
    <glyph glyph-name="at" unicode="@" horiz-adv-x="1000" 
d="M369 114q0 -36 19.5 -51.5t49.5 -15.5q24 0 41.5 9.5t31 23t22.5 28t15 24.5q21 34 36.5 72.5t26 72t16 59.5t5.5 37q0 23 -16 43.5t-46 20.5q-24 0 -48.5 -17.5t-47 -45.5t-41.5 -63t-33.5 -71t-22.5 -69t-8 -57zM831 -9q-10 -11 -38 -32t-70 -41.5t-96.5 -35.5
t-118.5 -15q-89 0 -165 24.5t-131 68t-86 104.5t-31 134q0 89 36.5 169.5t98 142t143 98t171.5 36.5q76 0 141.5 -24t114.5 -66.5t77 -102t28 -131.5q0 -68 -24 -126t-64 -101.5t-90.5 -68t-102.5 -24.5q-24 0 -38 7.5t-21.5 18.5t-10 23.5t-2.5 21.5q-5 -6 -15.5 -16.5
t-26.5 -21.5t-38 -19t-50 -8q-27 0 -51.5 9t-42.5 27t-28.5 45t-10.5 62q0 54 22 112t58.5 106t83 78.5t95.5 30.5q30 0 50.5 -9t34 -21t20.5 -24.5t11 -19.5l22 54h87l-84 -207q-8 -21 -18.5 -47.5t-20 -51t-16 -44.5t-6.5 -27q0 -12 6.5 -19.5t23.5 -7.5q28 0 62.5 18
t65.5 52.5t52 84t21 113.5t-25.5 115t-68.5 86t-99.5 53.5t-118.5 18.5q-72 0 -141 -34t-123 -89.5t-86.5 -126t-32.5 -144.5q0 -62 24.5 -114.5t69.5 -90.5t109.5 -60t144.5 -22q68 0 120 14.5t88.5 32.5t57.5 34.5t26 20.5z" />
    <glyph glyph-name="A" unicode="A" horiz-adv-x="611" 
d="M205 277h197l-95 321h-2zM244 690h123l236 -690h-106l-68 197h-247l-67 -197h-106z" />
    <glyph glyph-name="B" unicode="B" horiz-adv-x="537" 
d="M180 80h77q68 0 101.5 34.5t33.5 83.5q0 43 -17 68t-40 38t-48 16.5t-40 3.5h-67v-244zM180 404h63q17 0 37.5 3.5t38 14t29 31t11.5 55.5q0 37 -12 57.5t-30 30.5t-39.5 12t-40.5 2h-57v-206zM80 690h199q25 0 56.5 -6.5t59 -24.5t46 -50t18.5 -83q0 -43 -12 -71
t-29.5 -46t-35.5 -27.5t-30 -13.5v-2q19 -3 43.5 -12.5t46 -29.5t36 -52.5t14.5 -82.5q0 -63 -22.5 -100.5t-55.5 -57t-71.5 -25.5t-71.5 -6h-191v690z" />
    <glyph glyph-name="C" unicode="C" horiz-adv-x="537" 
d="M502 30q-11 -5 -29 -12t-42 -13.5t-52 -11t-58 -4.5q-57 0 -107 19t-87.5 62t-59 112.5t-21.5 170.5q0 69 12.5 132t42.5 111t80.5 76.5t125.5 28.5q53 0 94 -14.5t69.5 -41t43.5 -63.5t15 -81h-116q0 16 -3.5 36.5t-14.5 39t-33 31.5t-58 13q-49 0 -78 -26t-44.5 -64.5
t-20.5 -82.5t-5 -79q0 -65 9 -120t30 -95t56.5 -62.5t89.5 -22.5q32 0 58.5 7t47 16t34.5 18t21 13v-93z" />
    <glyph glyph-name="D" unicode="D" horiz-adv-x="593" 
d="M180 80h59q47 0 84 11t62.5 40.5t39 81t13.5 132.5q0 82 -13.5 134t-39 81t-63 39.5t-84.5 10.5h-58v-530zM80 690h177q79 0 134 -21.5t90 -64.5t51 -107.5t16 -149.5q0 -107 -23 -175t-62.5 -106t-92.5 -52t-113 -14h-177v690z" />
    <glyph glyph-name="E" unicode="E" 
d="M80 690h381v-80h-281v-211h267v-80h-267v-239h290v-80h-390v690z" />
    <glyph glyph-name="F" unicode="F" horiz-adv-x="463" 
d="M80 690h370v-80h-270v-211h256v-80h-256v-319h-100v690z" />
    <glyph glyph-name="G" unicode="G" horiz-adv-x="611" 
d="M551 54q-8 -6 -26.5 -17t-46 -21.5t-63 -18.5t-78.5 -8q-67 0 -120.5 21.5t-91.5 67t-58.5 117t-20.5 171.5q0 71 15 132.5t47 106.5t83.5 70.5t125.5 25.5q47 0 88.5 -12t73 -36t50 -61t18.5 -87h-111q0 22 -6.5 43t-21 37t-37 26t-55.5 10q-49 0 -80 -22.5t-49 -58.5
t-24.5 -81.5t-6.5 -92.5q0 -49 5.5 -101.5t24 -96t53.5 -71.5t95 -28q46 0 79 9.5t38 17.5v222h-147v80h247v-344z" />
    <glyph glyph-name="H" unicode="H" horiz-adv-x="630" 
d="M80 690h100v-291h271v291h100v-690h-100v319h-271v-319h-100v690z" />
    <glyph glyph-name="I" unicode="I" horiz-adv-x="259" 
d="M80 690h100v-690h-100v690z" />
    <glyph glyph-name="J" unicode="J" horiz-adv-x="370" 
d="M302 169q0 -38 -7 -71t-28.5 -57t-62.5 -38t-109 -14q-17 0 -29.5 1t-23 2.5t-20.5 4l-22 5.5v86q17 -5 40.5 -12t58.5 -7q39 0 59.5 10.5t30.5 27t11.5 37t1.5 39.5v507h100v-521z" />
    <glyph glyph-name="K" unicode="K" horiz-adv-x="556" 
d="M80 690h100v-307h2l234 307h120l-253 -329l273 -361h-121l-253 335h-2v-335h-100v690z" />
    <glyph glyph-name="L" unicode="L" horiz-adv-x="444" 
d="M80 690h100v-610h265v-80h-365v690z" />
    <glyph glyph-name="M" unicode="M" horiz-adv-x="833" 
d="M79 690h141l196 -565h2l196 565h140v-690h-90v572h-2l-198 -572h-95l-198 572h-2v-572h-90v690z" />
    <glyph glyph-name="N" unicode="N" horiz-adv-x="648" 
d="M80 690h125l272 -540h2v540h90v-690h-118l-279 553h-2v-553h-90v690z" />
    <glyph glyph-name="O" unicode="O" horiz-adv-x="630" 
d="M156 345q0 -42 5.5 -90.5t22.5 -90t48 -68.5t83 -27t83.5 27t48.5 68.5t22.5 90t5.5 90.5t-5.5 90.5t-22.5 90t-48.5 68.5t-83.5 27t-83 -27t-48 -68.5t-22.5 -90t-5.5 -90.5zM315 -11q-80 0 -131.5 29.5t-82.5 79t-43 113.5t-12 134t12 134.5t43 113.5t82.5 78.5
t131.5 29.5q79 0 131.5 -29.5t83 -78.5t43 -113.5t12.5 -134.5t-12.5 -134t-43 -113.5t-83 -79t-131.5 -29.5z" />
    <glyph glyph-name="P" unicode="P" 
d="M180 380h71q55 0 91 25.5t36 88.5q0 41 -12.5 64t-31.5 34.5t-41.5 14.5t-41.5 3h-71v-230zM80 690h166q38 0 80.5 -5t78.5 -25t59.5 -59t23.5 -107q0 -63 -24.5 -101.5t-59 -59t-72 -27t-63.5 -6.5h-89v-300h-100v690z" />
    <glyph glyph-name="Q" unicode="Q" horiz-adv-x="630" 
d="M156 345q0 -41 5 -87.5t21 -86t44.5 -65.5t76.5 -26q51 0 82.5 20t48.5 55.5t22.5 84t5.5 105.5q0 42 -5.5 90.5t-22.5 90t-48.5 68.5t-82.5 27q-48 0 -76.5 -27t-44.5 -68.5t-21 -90t-5 -90.5zM307 0q-77 0 -127.5 31t-80 80.5t-41.5 111t-12 122.5q0 70 11.5 134.5
t41 113.5t79 78.5t125.5 29.5q79 0 131 -29.5t82.5 -78.5t43 -113.5t12.5 -134.5q0 -56 -8.5 -103t-21 -82t-26.5 -57.5t-24 -28.5l2 -2l128 8v-80h-315z" />
    <glyph glyph-name="R" unicode="R" horiz-adv-x="537" 
d="M179 377h58q26 0 52 6t46.5 19.5t33 36.5t12.5 58q0 63 -32.5 88t-88.5 25h-81v-233zM79 690h200q40 0 77 -9.5t64.5 -30.5t44 -55.5t16.5 -85.5q0 -41 -11.5 -69t-30.5 -46.5t-43.5 -30t-50.5 -17.5v-2q35 -8 56 -22.5t33 -34t18 -44t12 -51.5l41 -192h-91l-42 153
q-11 37 -20 64t-22.5 45t-35.5 26.5t-58 8.5h-57v-297h-100v690z" />
    <glyph glyph-name="S" unicode="S" 
d="M330 375q25 -14 51 -30.5t47 -38t34 -51t13 -70.5q0 -50 -19 -87t-52.5 -61t-79 -36t-98.5 -12q-31 0 -59 3t-51.5 7.5t-40 9t-24.5 7.5v104q30 -17 77.5 -34t105.5 -17q24 0 47.5 5.5t42 17.5t30 31.5t11.5 47.5q0 27 -10 46.5t-26 35t-36 27.5l-40 24l-63 37
q-24 14 -50.5 29t-48.5 36t-36.5 49t-14.5 68q0 46 17.5 79.5t48.5 55.5t73 32.5t90 10.5q25 0 49.5 -2.5t45.5 -5.5t37 -6.5t25 -5.5v-94q-5 1 -21 6.5t-38.5 11.5t-49.5 11t-53 5q-51 0 -82.5 -23t-31.5 -67q0 -20 10.5 -36.5t26.5 -30.5t36 -26t39 -23z" />
    <glyph glyph-name="T" unicode="T" horiz-adv-x="444" 
d="M172 610h-172v80h444v-80h-172v-610h-100v610z" />
    <glyph glyph-name="U" unicode="U" horiz-adv-x="611" 
d="M540 204q0 -56 -17.5 -96.5t-49 -66.5t-74.5 -39t-94 -13q-50 0 -93 13t-74 39t-48.5 66.5t-17.5 96.5v486h100v-467q0 -19 2 -45.5t14.5 -50.5t39 -41t76.5 -17q51 0 78.5 17t40.5 41t15 50.5t2 45.5v467h100v-486z" />
    <glyph glyph-name="V" unicode="V" horiz-adv-x="556" 
d="M-17 690h105l188 -576h2l190 576h105l-235 -690h-124z" />
    <glyph glyph-name="W" unicode="W" horiz-adv-x="870" 
d="M27 690h91l101 -551h2l171 551h88l170 -551h2l101 551h91l-126 -690h-111l-170 542h-2l-168 -542h-111z" />
    <glyph glyph-name="X" unicode="X" horiz-adv-x="556" 
d="M223 363l-198 327h110l142 -235l144 235h110l-198 -327l220 -363h-110l-163 269l-166 -269h-110z" />
    <glyph glyph-name="Y" unicode="Y" horiz-adv-x="519" 
d="M209 319l-221 371h110l161 -266l162 266h110l-222 -371v-319h-100v319z" />
    <glyph glyph-name="Z" unicode="Z" 
d="M20 81l328 529h-311v80h427v-81l-326 -529h342v-80h-460v81z" />
    <glyph glyph-name="bracketleft" unicode="[" horiz-adv-x="333" 
d="M101 760h216v-70h-121v-756h121v-70h-216v896z" />
    <glyph glyph-name="backslash" unicode="\" horiz-adv-x="315" 
d="M-10 761h106l229 -897h-106z" />
    <glyph glyph-name="bracketright" unicode="]" horiz-adv-x="333" 
d="M16 -66h121v756h-121v70h216v-896h-216v70z" />
    <glyph glyph-name="asciicircum" unicode="^" horiz-adv-x="426" 
d="M180 690h63l121 -172h-80l-72 90l-69 -90h-81z" />
    <glyph glyph-name="underscore" unicode="_" 
d="M0 -75h500v-50h-500v50z" />
    <glyph glyph-name="quoteleft" unicode="&#x2018;" horiz-adv-x="222" 
d="M82 690h87l-9 -228h-116z" />
    <glyph glyph-name="a" unicode="a" horiz-adv-x="463" 
d="M285 213q-27 0 -52.5 -6t-45.5 -17.5t-32 -29t-12 -40.5q0 -28 16 -44.5t36 -16.5q23 0 43 12t34.5 30.5t22.5 41t8 43.5v27h-18zM303 59h-2q-5 -10 -14.5 -22t-24.5 -22.5t-36 -18t-48 -7.5q-67 0 -101 36t-34 92q0 47 23.5 77.5t61 48t84 24t91.5 6.5v83
q-6 35 -26.5 48t-46.5 13q-41 0 -58.5 -22t-17.5 -51h-95q0 28 9 54t30 46t55 31.5t84 11.5q58 0 90 -19t46.5 -45t17 -53t2.5 -43v-327h-90v59z" />
    <glyph glyph-name="b" unicode="b" horiz-adv-x="481" 
d="M154 239q0 -28 1.5 -59.5t10.5 -58.5t27 -44.5t51 -17.5q30 0 49 15.5t30 40t15 56.5t4 65q0 26 -3 57.5t-12.5 59t-26.5 46t-45 18.5t-47 -18.5t-31 -46t-17.5 -58.5t-5.5 -55zM154 411h2q4 10 13.5 23t24.5 25t36 20t50 8q49 0 80.5 -22t49.5 -58t25 -81.5t7 -92.5
q0 -55 -11 -100t-34 -77t-59.5 -49.5t-88.5 -17.5q-67 0 -104.5 24t-55.5 57.5t-21.5 68.5t-3.5 58v493h90v-279z" />
    <glyph glyph-name="c" unicode="c" horiz-adv-x="426" 
d="M404 7q-26 -8 -58 -13t-74 -5q-68 0 -113 25t-71.5 64t-37.5 86t-11 91q0 50 11.5 92.5t36.5 73.5t63.5 48.5t91.5 17.5q51 0 83.5 -15t52 -39t27 -53.5t7.5 -58.5h-103q0 13 -2 30t-9.5 31.5t-22 24.5t-39.5 10q-45 0 -71 -39.5t-26 -105.5q0 -35 8.5 -73t30 -69t58 -51
t92.5 -20q19 0 37.5 2t38.5 8v-62z" />
    <glyph glyph-name="d" unicode="d" 
d="M140 238q0 -27 3 -58.5t12.5 -58t28 -44.5t50.5 -18q27 0 46.5 17t32 43.5t18.5 58t6 61.5q0 31 -5 63t-17 57.5t-32 41.5t-50 16q-26 0 -44 -14t-29 -38t-15.5 -57t-4.5 -70zM337 73h-2q-4 -10 -13.5 -24.5t-25.5 -27.5t-39 -22.5t-54 -9.5q-44 0 -74.5 18.5t-50.5 51
t-29 76.5t-9 95q0 59 11 106.5t32.5 81t52.5 51.5t72 18q30 0 52 -8t37 -20t24.5 -25.5t13.5 -23.5h2v280h90v-690h-90v73z" />
    <glyph glyph-name="e" unicode="e" horiz-adv-x="444" 
d="M316 333q0 11 -4 25.5t-13.5 27.5t-26.5 22t-43 9q-28 0 -46 -10t-29 -24t-15.5 -28t-4.5 -22h182zM395 5q-29 -7 -54.5 -11.5t-64.5 -4.5q-108 0 -172 66t-64 206q0 76 21.5 121t52.5 68.5t64 30t56 6.5q43 0 75.5 -14t54 -39.5t32 -60.5t10.5 -77v-23h-276q0 -33 9 -71
t29.5 -69.5t54 -52.5t82.5 -21q31 0 52.5 6t37.5 11v-71z" />
    <glyph glyph-name="f" unicode="f" horiz-adv-x="352" 
d="M111 406h-86v70h86v55q0 170 182 170q23 0 48 -2t48 -7v-75q-21 6 -43.5 10t-51.5 4q-27 0 -45 -10t-28.5 -25t-15 -34t-4.5 -37v-49h142v-70h-142v-406h-90v406z" />
    <glyph glyph-name="g" unicode="g" 
d="M140 240q0 -24 3 -53.5t13 -55.5t28 -43.5t48 -17.5q29 0 49 17.5t32.5 43.5t18 57.5t5.5 60.5q0 27 -5 56.5t-17 54.5t-32 41t-50 16t-48 -17.5t-28 -44t-13.5 -57.5t-3.5 -58zM427 -19q0 -104 -56.5 -149.5t-163.5 -45.5q-56 0 -93 6.5t-53 10.5v91q22 -11 57.5 -24.5
t79.5 -13.5q52 0 80.5 16t41.5 39t15 49.5t2 46.5v74h-2q-3 -10 -12.5 -24t-25.5 -26.5t-39 -21.5t-54 -9q-47 0 -78.5 20t-50.5 53t-27 76t-8 89q0 51 9.5 96t30 79t53 54t77.5 20q28 0 50 -8.5t37.5 -20.5t24.5 -25.5t13 -22.5h2v66h90v-495z" />
    <glyph glyph-name="h" unicode="h" horiz-adv-x="519" 
d="M74 690h90v-316h2q6 15 16.5 34.5t28.5 37t44 29.5t62 12q41 0 66.5 -16t39 -40t18 -51.5t4.5 -49.5v-330h-90v260q0 33 -1 58.5t-7 43t-19.5 26.5t-37.5 9q-28 0 -51 -17t-39.5 -45t-26 -62.5t-9.5 -70.5v-202h-90v690z" />
    <glyph glyph-name="i" unicode="i" horiz-adv-x="259" 
d="M75 690h108v-102h-108v102zM84 476h90v-476h-90v476z" />
    <glyph glyph-name="j" unicode="j" horiz-adv-x="259" 
d="M82 690h108v-102h-108v102zM181 -41q0 -52 -19 -85.5t-49.5 -53t-68 -27t-74.5 -7.5q-6 0 -13 0.5t-13 1.5v71q18 -3 36 -3q42 0 64.5 12.5t33 33t12 45.5t1.5 50v479h90v-517z" />
    <glyph glyph-name="k" unicode="k" horiz-adv-x="463" 
d="M74 690h90v-404l166 190h113l-176 -208l193 -268h-113l-181 246h-2v-246h-90v690z" />
    <glyph glyph-name="l" unicode="l" horiz-adv-x="259" 
d="M84 690h90v-690h-90v690z" />
    <glyph glyph-name="m" unicode="m" horiz-adv-x="759" 
d="M75 476h90v-95h2q5 14 14.5 32.5t25.5 35t38.5 27.5t54.5 11q31 0 53 -9.5t36.5 -24.5t21.5 -33t10 -34h2q6 15 16.5 32.5t27 33t39 25.5t52.5 10q42 0 67.5 -16t39 -40t18 -51.5t4.5 -49.5v-330h-90v260q0 33 -1 59t-7 43t-19.5 26t-38.5 9q-21 0 -40 -15t-33.5 -39.5
t-23 -54.5t-8.5 -60v-228h-90v260q0 33 -1 58.5t-7 43t-18.5 26.5t-36.5 9t-43.5 -17t-34 -45t-22.5 -62.5t-8 -70.5v-202h-90v476z" />
    <glyph glyph-name="n" unicode="n" horiz-adv-x="519" 
d="M74 476h90v-102h2q6 15 16.5 34.5t28.5 37t44 29.5t62 12q41 0 66.5 -16t39 -40t18 -51.5t4.5 -49.5v-330h-90v260q0 33 -1 58.5t-7 43t-19.5 26.5t-37.5 9q-28 0 -51 -17t-39.5 -45t-26 -62.5t-9.5 -70.5v-202h-90v476z" />
    <glyph glyph-name="o" unicode="o" 
d="M140 238q0 -29 3.5 -60.5t15 -57.5t33.5 -43.5t59 -17.5q36 0 58 17.5t33.5 43.5t15 57.5t3.5 60.5t-3.5 60.5t-15 58t-33.5 43.5t-58 17q-37 0 -59 -17t-33.5 -43.5t-15 -58t-3.5 -60.5zM251 -11q-54 0 -93.5 18t-66 50.5t-39 78.5t-12.5 102q0 114 51.5 181.5
t159.5 67.5q107 0 158.5 -67.5t51.5 -181.5q0 -56 -12.5 -102t-38.5 -78.5t-65.5 -50.5t-93.5 -18z" />
    <glyph glyph-name="p" unicode="p" 
d="M164 237q0 -32 5 -63.5t17 -57t32 -41.5t50 -16q26 0 44 14t29 38t15.5 56.5t4.5 70.5q0 27 -3 58.5t-12.5 58t-28.5 44.5t-51 18q-27 0 -46.5 -17t-32 -43.5t-18 -58t-5.5 -61.5zM74 476h90v-72h2q4 10 14 24.5t26.5 27.5t39.5 22t52 9q43 0 74 -18.5t50.5 -51t29 -76.5
t9.5 -95q0 -120 -43.5 -188.5t-124.5 -68.5q-30 0 -51.5 8t-37 20t-25 25t-13.5 23h-2v-279h-90v690z" />
    <glyph glyph-name="q" unicode="q" 
d="M140 238q0 -38 4.5 -70.5t15.5 -56.5t29 -38t44 -14q30 0 50 16t32 41.5t17 57.5t5 63q0 30 -6 61.5t-18.5 58t-32 43.5t-46.5 17q-32 0 -50.5 -18t-28 -44.5t-12.5 -58t-3 -58.5zM337 66h-2q-4 -11 -13.5 -24t-24.5 -25t-37 -20t-52 -8q-41 0 -72 18t-52.5 51.5
t-32.5 81t-11 106.5q0 51 9 95t29 76.5t50.5 51t74.5 18.5q31 0 54 -8.5t39 -21t25.5 -25.5t13.5 -22h2v66h90v-690h-90v280z" />
    <glyph glyph-name="r" unicode="r" horiz-adv-x="333" 
d="M74 476h90v-96h2q5 14 15.5 32.5t28 35t43 28t60.5 11.5v-98q-30 0 -57.5 -8.5t-47.5 -30t-32 -57.5t-12 -91v-202h-90v476z" />
    <glyph glyph-name="s" unicode="s" horiz-adv-x="370" 
d="M234 274q19 -12 38.5 -24t35.5 -28.5t26 -37.5t10 -51q0 -75 -49 -109.5t-130 -34.5q-49 0 -80.5 7t-47.5 12v79q3 -2 15.5 -6.5t29.5 -9t36.5 -8.5t38.5 -4q16 0 33 2.5t31.5 9.5t23.5 19t9 30q0 13 -7.5 24t-18.5 20t-24.5 17t-25.5 16l-46 28q-16 10 -33 21.5
t-30.5 26.5t-22.5 35t-9 46q0 32 12.5 57t35 42t53.5 25.5t68 8.5q36 0 63.5 -7t44.5 -10v-81q-5 2 -15.5 7t-24.5 9.5t-32 8t-37 3.5q-15 0 -29 -4t-25 -10.5t-17.5 -16t-6.5 -20.5q0 -12 6.5 -22t16.5 -18.5t22 -15.5l24 -14z" />
    <glyph glyph-name="t" unicode="t" horiz-adv-x="352" 
d="M327 -4q-17 -4 -35 -5.5t-36 -1.5q-43 0 -71 9t-44 24.5t-22 37t-6 45.5v301h-85v70h85v112l90 56v-168h132v-70h-132v-254q0 -16 2 -32.5t9.5 -30t23 -22t41.5 -8.5q12 0 25 2t23 5v-70z" />
    <glyph glyph-name="u" unicode="u" horiz-adv-x="519" 
d="M350 102h-2q-6 -15 -16.5 -34.5t-28.5 -37t-44 -29.5t-62 -12q-41 0 -66.5 16t-39 40t-18 51.5t-4.5 49.5v330h90v-260q0 -33 1 -59t7 -43t19.5 -26t37.5 -9q28 0 51 17t39.5 45t26 62.5t9.5 70.5v202h90v-476h-90v102z" />
    <glyph glyph-name="v" unicode="v" horiz-adv-x="444" 
d="M4 476h100l124 -346h2l111 346h100l-165 -476h-92z" />
    <glyph glyph-name="w" unicode="w" horiz-adv-x="685" 
d="M41 476h87l75 -345h2l104 345h68l104 -345h2l75 345h87l-107 -476h-95l-99 330h-2l-96 -330h-95z" />
    <glyph glyph-name="x" unicode="x" horiz-adv-x="463" 
d="M181 251l-151 225h105l97 -146l97 146h105l-151 -225l171 -251h-105l-116 173l-118 -173h-105z" />
    <glyph glyph-name="y" unicode="y" horiz-adv-x="444" 
d="M184 -3l-181 479h100l125 -344h2l112 344h100l-237 -681h-88z" />
    <glyph glyph-name="z" unicode="z" horiz-adv-x="389" 
d="M19 70l231 336h-216v70h325v-68l-231 -338h240v-70h-349v70z" />
    <glyph glyph-name="braceleft" unicode="{" horiz-adv-x="556" 
d="M434 -238q-38 1 -75.5 14.5t-67.5 36t-49 53t-19 66.5q0 27 3.5 50t8.5 46q5 26 10.5 50t5.5 44q0 23 -9 43.5t-24.5 36.5t-35.5 28t-41 19v24q21 7 41 18t35.5 27t24.5 36.5t9 45.5q0 20 -5.5 44t-10.5 50q-5 23 -8.5 46t-3.5 50q0 36 19 66.5t49 53t67.5 35.5t75.5 15
v-25q-28 -6 -48 -20t-33 -33t-19.5 -40.5t-6.5 -42.5q0 -20 2 -40.5t5 -44.5q2 -18 4.5 -41.5t2.5 -37.5q0 -42 -17 -71.5t-41.5 -49.5t-51 -32.5t-45.5 -20.5q19 -8 45.5 -21.5t51 -34t41.5 -49.5t17 -69q0 -14 -2.5 -37.5t-4.5 -41.5q-3 -24 -5 -44.5t-2 -40.5
q0 -21 6.5 -42.5t19.5 -40.5t33 -33t48 -20v-25z" />
    <glyph glyph-name="bar" unicode="|" horiz-adv-x="259" 
d="M81 760h97v-896h-97v896z" />
    <glyph glyph-name="braceright" unicode="}" horiz-adv-x="556" 
d="M125 -213q28 6 48 20t33 33t19.5 40.5t6.5 42.5q0 20 -2 40.5t-5 44.5q-2 18 -4.5 41.5t-2.5 37.5q0 40 17 69t41.5 49.5t51 34t45.5 21.5q-19 8 -45.5 20.5t-51 32.5t-41.5 49.5t-17 71.5q0 14 2.5 37.5t4.5 41.5q3 24 5 44.5t2 40.5q0 21 -6.5 42.5t-19.5 40.5t-33 33
t-48 20v25q37 -2 75 -15t68 -35.5t49 -53t19 -66.5q0 -27 -3.5 -50t-8.5 -46q-5 -26 -10.5 -50t-5.5 -44q0 -25 9 -45.5t24.5 -36.5t35.5 -27t41 -18v-24q-21 -7 -41 -19t-35.5 -28t-24.5 -36.5t-9 -43.5q0 -20 5.5 -44t10.5 -50q5 -23 8.5 -46t3.5 -50q0 -36 -19 -66.5
t-49 -53t-68 -36t-75 -14.5v25z" />
    <glyph glyph-name="asciitilde" unicode="~" horiz-adv-x="611" 
d="M66 243q0 21 4.5 39.5t15 33t26.5 23t40 8.5q23 0 45 -10t43 -21l152 -75q18 -9 29.5 -15t22.5 -6q9 0 13.5 7.5t4.5 15.5v82h84v-85q0 -12 -2 -30t-11.5 -35t-28.5 -29t-53 -12q-26 0 -45.5 9t-42.5 21l-149 73q-18 9 -27.5 14t-17.5 5q-14 0 -16.5 -16t-2.5 -42v-42
h-84v87z" />
    <glyph glyph-name="exclamdown" unicode="&#xa1;" horiz-adv-x="296" 
d="M51 554h121v-121h-121v121zM68 357h87l8 -493h-103z" />
    <glyph glyph-name="cent" unicode="&#xa2;" horiz-adv-x="481" 
d="M225 437q-27 -5 -44.5 -21.5t-28 -39.5t-15 -51.5t-4.5 -57.5q0 -72 24.5 -117.5t67.5 -73.5v361zM225 -11q-33 5 -67 19.5t-62 45t-45.5 79t-17.5 121.5q0 61 16 104.5t42.5 72t61 42t72.5 14.5v81h51v-81q34 -4 65.5 -16t55.5 -33.5t38 -52t14 -72.5h-103q0 20 -3 39.5
t-11 36.5t-21.5 29t-34.5 17v-386q11 -3 21.5 -5t21.5 -2q42 0 69 8t47 16v-47q-3 -2 -17 -7t-34.5 -10t-45.5 -9t-51 -4h-11v-98h-51v98z" />
    <glyph glyph-name="sterling" unicode="&#xa3;" horiz-adv-x="463" 
d="M101 295h-71v65h71v151q0 42 13.5 71t37.5 48t57.5 27.5t72.5 8.5q54 0 90 -16t58.5 -39.5t32 -49.5t9.5 -46h-107q0 10 -3.5 24t-13 26.5t-26 21.5t-42.5 9t-43 -8.5t-26.5 -23.5t-13 -34.5t-3.5 -41.5v-128h129v-65h-129v-215h257v-80h-350v295z" />
    <glyph glyph-name="fraction" unicode="&#x2044;" horiz-adv-x="300" 
d="M227 634h78l-233 -634h-77z" />
    <glyph glyph-name="fraction" unicode="&#x2215;" horiz-adv-x="300" 
d="M227 634h78l-233 -634h-77z" />
    <glyph glyph-name="yen" unicode="&#xa5;" horiz-adv-x="519" 
d="M168 389h-160v60h124l-144 241h112l159 -267l160 267h112l-144 -241h124v-60h-160l-42 -70v-57h202v-60h-202v-202h-100v202h-201v60h201v57z" />
    <glyph glyph-name="florin" unicode="&#x192;" horiz-adv-x="426" 
d="M142 419h-85l13 60h82l11 63q1 10 9.5 34t30 49.5t61 45t102.5 19.5q32 0 54.5 -3.5t47.5 -8.5l-12 -71q-17 5 -35.5 9t-37.5 4q-35 0 -57.5 -9t-36 -24t-21 -36t-11.5 -45l-5 -27h134l-11 -60h-133l-73 -419h-100z" />
    <glyph glyph-name="section" unicode="&#xa7;" horiz-adv-x="481" 
d="M230 298q37 -17 65.5 -29t38.5 -17q3 3 7.5 9t9.5 14t8.5 18.5t3.5 21.5q0 18 -11.5 31.5t-29.5 24.5t-40.5 20t-44.5 20q-30 14 -55.5 24.5t-33.5 13.5q-10 -9 -20 -23.5t-10 -34.5q0 -18 9 -31t24.5 -23.5t36 -19.5t42.5 -19zM404 593q-31 14 -67.5 26t-84.5 12
q-12 0 -28 -2.5t-30.5 -8.5t-25 -16t-10.5 -24q0 -24 24.5 -42t60 -33t74 -29t66.5 -30q31 -18 48 -40t17 -60q0 -26 -8 -46t-19 -35t-22.5 -24.5t-19.5 -13.5q5 -5 13.5 -13t16.5 -20t14 -28.5t6 -38.5q0 -34 -17 -60t-45.5 -43t-66 -26t-78.5 -9q-55 0 -95 8.5t-55 15.5
v86q22 -10 62.5 -25t90.5 -15q18 0 36.5 3t33.5 10t24.5 18t9.5 27q0 20 -19 36.5t-47 30.5t-60 26t-57 24q-26 12 -46.5 22.5t-35.5 24t-23 32t-8 44.5t8.5 46.5t20 35.5t23.5 24.5t18 14.5q-5 4 -12.5 11.5t-14.5 18.5t-12.5 26t-5.5 33q0 33 16 58.5t42.5 42t59.5 25
t67 8.5q30 0 57.5 -3.5t48.5 -7.5t35.5 -8.5t19.5 -5.5v-83z" />
    <glyph glyph-name="currency" unicode="&#xa4;" 
d="M80 349q0 -35 13.5 -66t37 -54t54.5 -36t66 -13q34 0 65 13t54.5 36t37 54t13.5 66q0 36 -13.5 67.5t-36.5 55t-54 37t-66 13.5q-36 0 -67 -13.5t-54 -37t-36.5 -55t-13.5 -67.5zM389 182q-9 -6 -21.5 -14.5t-29.5 -16t-38.5 -12.5t-48.5 -5q-28 0 -49.5 5t-38.5 12.5
t-29.5 16t-21.5 14.5l-67 -67l-31 31l67 67q-4 6 -12 17.5t-15.5 28.5t-13.5 39.5t-6 50.5q0 30 5 52.5t12.5 39.5t15.5 28.5t14 19.5l-68 67l32 31l67 -66q10 7 22.5 15t29.5 15t38.5 12t48.5 5t48.5 -5t38 -12t29 -15t22.5 -15l67 66l32 -31l-68 -67q6 -8 14 -19.5
t15.5 -28t12.5 -39.5t5 -53q0 -28 -6 -50.5t-13.5 -39.5t-15.5 -28.5t-12 -17.5l67 -67l-31 -31z" />
    <glyph glyph-name="quotesingle" unicode="'" horiz-adv-x="241" 
d="M63 690h116l-20 -228h-77z" />
    <glyph glyph-name="quotedblleft" unicode="&#x201c;" horiz-adv-x="389" 
d="M168 462h-115l37 228h88zM335 462h-115l37 228h88z" />
    <glyph glyph-name="guillemotleft" unicode="&#xab;" horiz-adv-x="389" 
d="M182 247l73 193h93l-64 -193l64 -188h-93zM30 247l73 193h93l-64 -193l64 -188h-93z" />
    <glyph glyph-name="guilsinglleft" unicode="&#x2039;" horiz-adv-x="241" 
d="M32 247l73 193h93l-65 -193l65 -188h-93z" />
    <glyph glyph-name="guilsinglright" unicode="&#x203a;" horiz-adv-x="241" 
d="M108 252l-65 188h93l73 -188l-73 -193h-93z" />
    <glyph glyph-name="endash" unicode="&#x2013;" horiz-adv-x="556" 
d="M46 311h464v-107h-464v107z" />
    <glyph glyph-name="dagger" unicode="&#x2020;" horiz-adv-x="537" 
d="M219 376h-188v75h188v239h100v-239h187v-75h-187v-376h-100v376z" />
    <glyph glyph-name="daggerdbl" unicode="&#x2021;" horiz-adv-x="556" 
d="M228 302h-188v75h188v71h-188v75h188v167h100v-167h188v-75h-188v-71h188v-75h-188v-302h-100v302z" />
    <glyph glyph-name="periodcentered" unicode="&#xb7;" horiz-adv-x="241" 
d="M59 379h123v-123h-123v123z" />
    <glyph glyph-name="periodcentered" unicode="&#x2219;" horiz-adv-x="241" 
d="M59 379h123v-123h-123v123z" />
    <glyph glyph-name="paragraph" unicode="&#xb6;" horiz-adv-x="537" 
d="M305 222q-34 6 -72.5 20t-71 39.5t-54.5 66t-23 100.5q0 56 18 96t48 67t67 42.5t76 23.5t75 10.5t63 2.5h68v-39h-69v-866h-38v866h-49v-866h-38v437z" />
    <glyph glyph-name="bullet" unicode="&#x2022;" horiz-adv-x="537" 
d="M269 180q-37 0 -70 14t-57.5 38.5t-39 57.5t-14.5 70t14.5 70.5t39 58t57.5 39t70 14.5t70 -14.5t57.5 -39t39 -58t14.5 -70.5t-14.5 -70t-39 -57.5t-57.5 -38.5t-70 -14z" />
    <glyph glyph-name="quotesinglbase" unicode="&#x201a;" horiz-adv-x="222" 
d="M63 138h115l-37 -228h-88z" />
    <glyph glyph-name="quotedblbase" unicode="&#x201e;" horiz-adv-x="389" 
d="M230 138h115l-37 -228h-88zM63 138h115l-37 -228h-88z" />
    <glyph glyph-name="quotedblright" unicode="&#x201d;" horiz-adv-x="389" 
d="M230 690h115l-37 -228h-88zM63 690h115l-37 -228h-88z" />
    <glyph glyph-name="guillemotright" unicode="&#xbb;" horiz-adv-x="389" 
d="M258 252l-65 188h93l73 -188l-73 -193h-93zM106 252l-65 188h93l73 -188l-73 -193h-93z" />
    <glyph glyph-name="ellipsis" unicode="&#x2026;" horiz-adv-x="722" 
d="M544 117h117v-117h-117v117zM303 117h117v-117h-117v117zM62 117h117v-117h-117v117z" />
    <glyph glyph-name="perthousand" unicode="&#x2030;" horiz-adv-x="1222" 
d="M504 634h78l-234 -634h-78zM952 213q0 -31 3 -62t12 -56t26 -40.5t45 -15.5t45 15.5t26 40.5t12 56t3 62q0 30 -3 61t-12 56t-26 40.5t-45 15.5t-45 -15.5t-26 -40.5t-12 -56t-3 -61zM1038 -11q-47 0 -77.5 19t-48.5 50t-25 71.5t-7 83.5t7 83t25 71t48.5 50t77.5 19
t77.5 -19t48.5 -50t25 -71t7 -83t-7 -83.5t-25 -71.5t-48.5 -50t-77.5 -19zM581 213q0 -31 3 -62t12 -56t26 -40.5t45 -15.5t45.5 15.5t26.5 40.5t12 56t3 62q0 30 -3 61t-12 56t-26.5 40.5t-45.5 15.5t-45 -15.5t-26 -40.5t-12 -56t-3 -61zM667 -11q-47 0 -77.5 19
t-48.5 50t-25 71.5t-7 83.5t7 83t25 71t48.5 50t77.5 19t78 -19t49 -50t25 -71t7 -83t-7 -83.5t-25 -71.5t-49 -50t-78 -19zM99 422q0 -31 3 -62t12 -56t26 -40.5t45 -15.5t45.5 15.5t26.5 40.5t12 56t3 62q0 30 -3 61t-12 56t-26.5 40.5t-45.5 15.5t-45 -15.5t-26 -40.5
t-12 -56t-3 -61zM185 198q-47 0 -77.5 19t-48.5 50t-25 71t-7 83t7 83.5t25 71.5t48.5 50t77.5 19t78 -19t49 -50t25 -71.5t7 -83.5t-7 -83t-25 -71t-49 -50t-78 -19z" />
    <glyph glyph-name="questiondown" unicode="&#xbf;" horiz-adv-x="444" 
d="M195 554h123v-121h-123v121zM370 -128q-8 -2 -24 -5t-35.5 -6t-41 -5.5t-42.5 -2.5q-44 0 -82 9.5t-66 29t-44 49t-16 68.5q0 31 9.5 55.5t23.5 43t29.5 32.5t26.5 25l42 42q17 17 28 29t18 24t9.5 28t2.5 41v28h93v-48q0 -29 -2 -46.5t-9 -31t-19 -27.5t-33 -35l-60 -60
q-20 -20 -39 -42.5t-19 -53.5q0 -45 31.5 -64.5t76.5 -19.5q19 0 39 3.5t39 8.5t35.5 11.5t28.5 12.5v-93z" />
    <glyph glyph-name="grave" unicode="`" horiz-adv-x="340" 
d="M44 726h121l46 -167h-83z" />
    <glyph glyph-name="acute" unicode="&#xb4;" horiz-adv-x="340" 
d="M174 726h121l-84 -167h-83z" />
    <glyph glyph-name="circumflex" unicode="&#x2c6;" horiz-adv-x="340" 
d="M114 708h108l99 -149h-81l-71 84l-69 -84h-81z" />
    <glyph glyph-name="tilde" unicode="&#x2dc;" horiz-adv-x="340" 
d="M32 569q0 25 1.5 55t8.5 45q6 12 14 19.5t16.5 11.5t16 5t10.5 1q16 0 36 -10.5t39 -22.5q20 -13 35.5 -23.5t22.5 -10.5q13 0 15 14.5t2 43.5h59q0 -30 -1.5 -55.5t-8 -44t-19.5 -28.5t-36 -10q-21 0 -41.5 9.5t-38.5 21t-32 21t-21 9.5q-13 0 -16 -10.5t-3 -27.5v-13
h-59z" />
    <glyph glyph-name="macron" unicode="&#xaf;" horiz-adv-x="340" 
d="M17 636h306v-77h-306v77z" />
    <glyph glyph-name="macron" unicode="&#x2c9;" horiz-adv-x="340" 
d="M17 636h306v-77h-306v77z" />
    <glyph glyph-name="breve" unicode="&#x2d8;" horiz-adv-x="340" 
d="M322 716q0 -23 -7.5 -50t-25.5 -51t-48.5 -40t-76.5 -16q-30 0 -56.5 10.5t-46.5 30.5t-31.5 49t-11.5 67h68q1 -9 6 -21.5t15 -24.5t25 -20.5t36 -8.5q24 0 40 8.5t25.5 20.5t14.5 24.5t6 21.5h68z" />
    <glyph glyph-name="dotaccent" unicode="&#x2d9;" horiz-adv-x="340" 
d="M107 684h126v-113h-126v113z" />
    <glyph glyph-name="dieresis" unicode="&#xa8;" horiz-adv-x="340" 
d="M211 681h123v-110h-123v110zM5 681h123v-110h-123v110z" />
    <glyph glyph-name="ring" unicode="&#x2da;" horiz-adv-x="340" 
d="M125 659q0 -18 13.5 -30.5t31.5 -12.5q19 0 32 13t13 31q0 17 -13 28.5t-31 11.5q-20 0 -33 -12t-13 -29zM170 559q-21 0 -39.5 8t-32.5 21.5t-22 31.5t-8 39t8.5 39t23.5 31t34 20.5t40 7.5q41 0 69.5 -28.5t28.5 -69.5q0 -21 -8 -39t-22 -31.5t-32.5 -21.5t-39.5 -8z
" />
    <glyph glyph-name="cedilla" unicode="&#xb8;" horiz-adv-x="340" 
d="M194 -65q2 0 5 0.5t6 0.5q14 0 31.5 -4t32.5 -14t25.5 -27.5t10.5 -45.5q0 -44 -28.5 -73t-86.5 -29q-30 0 -47.5 8t-27.5 13v63q14 -11 30 -18.5t37 -7.5q23 0 33.5 14t10.5 30q0 18 -8.5 29t-20.5 16t-25.5 6.5t-22.5 1.5q-5 0 -10.5 -1t-10.5 -2l28 121h57z" />
    <glyph glyph-name="hungarumlaut" unicode="&#x2dd;" horiz-adv-x="340" 
d="M252 726h121l-83 -167h-83zM96 726h121l-84 -167h-83z" />
    <glyph glyph-name="ogonek" unicode="&#x2db;" horiz-adv-x="340" 
d="M283 -238q-16 -5 -32.5 -8t-33.5 -3q-48 0 -80 28t-32 72q0 24 8.5 47t21.5 43.5t28.5 37.5t29.5 28h58q-8 -8 -19 -20t-21.5 -28.5t-18 -37t-7.5 -44.5q0 -25 13.5 -46t41.5 -21q14 0 23 4t20 10v-62z" />
    <glyph glyph-name="caron" unicode="&#x2c7;" horiz-adv-x="340" 
d="M19 708h81l71 -84l69 84h81l-96 -149h-108z" />
    <glyph glyph-name="emdash" unicode="&#x2014;" horiz-adv-x="722" 
d="M45 311h632v-107h-632v107z" />
    <glyph glyph-name="AE" unicode="&#xc6;" horiz-adv-x="833" 
d="M310 364h144l-17 241h-2zM392 690h402v-80h-258l18 -246h229v-80h-223l15 -204h228v-80h-321l-22 284h-195l-150 -284h-112z" />
    <glyph glyph-name="ordfeminine" unicode="&#xaa;" horiz-adv-x="259" 
d="M165 404q-13 0 -27.5 -2.5t-26.5 -8.5t-19.5 -15.5t-7.5 -23.5q0 -15 9.5 -24t26.5 -9q22 0 38 23.5t16 51.5v8h-9zM174 320h-2q-5 -12 -21 -25.5t-48 -13.5q-30 0 -49.5 19.5t-19.5 51.5q0 31 17 48.5t40.5 25.5t47 10t35.5 2v9q0 12 -0.5 24.5t-4 22t-11 15.5t-21.5 6
q-23 0 -32.5 -12t-9.5 -26h-52q0 33 22.5 55.5t73.5 22.5q30 0 47.5 -9.5t25.5 -23.5t10 -30.5t2 -30.5v-174h-50v33z" />
    <glyph glyph-name="Oslash" unicode="&#xd8;" horiz-adv-x="630" 
d="M203 114q23 -27 51.5 -36t60.5 -9q55 0 86.5 27t48 68.5t21 90t4.5 90.5q0 39 -3 83.5t-14 86.5zM425 577q-36 44 -110 44q-52 0 -83 -27t-48 -68.5t-22.5 -90t-5.5 -90.5q0 -30 1 -52t3 -40.5t5.5 -36t8.5 -38.5zM518 613q42 -54 54.5 -123.5t12.5 -144.5
q0 -70 -12.5 -134t-43 -113.5t-83 -79t-131.5 -29.5q-34 0 -57 3.5t-40.5 9.5t-31.5 15t-30 21l-49 -80l-51 32l56 91q-23 29 -36.5 60.5t-20 64.5t-8 68t-1.5 71q0 70 12 134.5t43 113.5t82.5 78.5t131.5 29.5q30 0 52.5 -3t41 -9t34 -14.5t32.5 -19.5l50 80l50 -31z" />
    <glyph glyph-name="OE" unicode="&#x152;" horiz-adv-x="889" 
d="M156 345q0 -52 5 -101.5t21 -88.5t46 -62.5t79 -23.5q55 0 87.5 27t49.5 68.5t22.5 90t5.5 90.5t-6 90.5t-23.5 90t-50 68.5t-85.5 27q-49 0 -79 -23.5t-46 -62.5t-21 -88.5t-5 -101.5zM472 84h-2q-9 -16 -25.5 -33t-38 -30.5t-47 -22.5t-52.5 -9q-77 0 -127.5 26
t-80 73.5t-41.5 113t-12 143.5t12 143t41.5 112.5t80 74t127.5 26.5q19 0 41 -6.5t44.5 -18.5t42.5 -29.5t35 -40.5h2v84h377v-80h-277v-210h263v-80h-263v-240h287v-80h-387v84z" />
    <glyph glyph-name="ordmasculine" unicode="&#xba;" horiz-adv-x="278" 
d="M79 419q0 -18 2.5 -35.5t9 -31t18 -22t30.5 -8.5t30.5 8.5t18 22t9 31t2.5 35.5t-2.5 35t-9 30.5t-18 22t-30.5 8.5t-30.5 -8.5t-18 -22t-9 -30.5t-2.5 -35zM139 282q-59 0 -87.5 37t-28.5 100t28.5 99.5t87.5 36.5t87.5 -36.5t28.5 -99.5t-28.5 -100t-87.5 -37z" />
    <glyph glyph-name="ae" unicode="&#xe6;" horiz-adv-x="722" 
d="M594 305q0 10 -2 28.5t-10.5 37t-26.5 32.5t-51 14t-52 -14t-29.5 -32.5t-13.5 -37t-3 -28.5h188zM290 245q-26 0 -53.5 -6t-50.5 -19t-37.5 -34t-14.5 -52q0 -32 19 -53.5t55 -21.5q52 0 80 40t28 108v38h-26zM673 6q-33 -9 -62.5 -13t-61.5 -4q-43 0 -73.5 8.5
t-52.5 22t-37 29t-27 30.5q-7 -11 -19.5 -26.5t-33 -29.5t-49.5 -24t-68 -10q-66 0 -105.5 39.5t-39.5 102.5q0 40 14 68.5t37 48t52.5 30.5t59.5 17t58.5 8t50.5 2v24q0 8 -1 23t-8.5 29.5t-23.5 25t-46 10.5q-22 0 -37 -6.5t-24 -15.5t-12.5 -20t-3.5 -20h-97q0 21 9 44
t29 42.5t52.5 32.5t79.5 13q30 0 51 -5t36.5 -13t26 -18t19.5 -20q24 22 58 39t85 17q52 0 86 -17t53.5 -44t27.5 -61.5t8 -69.5v-50h-278q2 -17 7.5 -48t23.5 -62t52 -53.5t93 -22.5q23 0 47.5 3.5t43.5 9.5v-66z" />
    <glyph glyph-name="dotlessi" unicode="&#x131;" horiz-adv-x="259" 
d="M84 476h90v-476h-90v476z" />
    <glyph glyph-name="oslash" unicode="&#xf8;" 
d="M322 390q-10 11 -26.5 19t-39.5 8q-37 0 -59.5 -15t-35 -40t-17 -56t-4.5 -63q0 -29 4 -59.5t9 -50.5zM179 86q13 -12 30.5 -19.5t39.5 -7.5q25 0 45.5 8.5t35.5 27.5t23 49t8 73q0 40 -3.5 69.5t-10.5 52.5zM403 427q9 -10 19 -25.5t19 -38.5t14.5 -55.5t5.5 -77.5
q0 -241 -213 -241q-25 0 -43 3t-31 7.5t-22.5 10t-16.5 9.5l-47 -73l-40 27l50 76q-8 10 -18 25t-19 37.5t-15 54.5t-6 76q0 56 13 101t40 77t67.5 49.5t94.5 17.5q24 0 41.5 -3t30.5 -7t23 -9l18 -9l45 69l40 -27z" />
    <glyph glyph-name="oe" unicode="&#x153;" horiz-adv-x="778" 
d="M140 238q0 -29 4 -60.5t16 -58t33.5 -43.5t57.5 -17q37 0 58 17.5t31 43.5t12.5 57.5t2.5 60.5q0 26 -2.5 57.5t-12.5 58.5t-31 45t-58 18q-36 0 -57.5 -18.5t-33.5 -45.5t-16 -58t-4 -57zM650 304q0 11 -2 29.5t-11.5 36.5t-29 31.5t-53.5 15.5q-32 0 -51 -14t-30 -32.5
t-14.5 -37.5t-3.5 -29h195zM728 6q-30 -8 -62 -12.5t-64 -4.5q-40 0 -70.5 8t-53 20.5t-37 27.5t-23.5 28q-32 -47 -73 -65.5t-94 -18.5q-108 6 -159.5 73t-51.5 176q0 55 12.5 99.5t39 76.5t66 51t93.5 22q7 0 25 -1.5t40.5 -8.5t46.5 -21t43 -39q9 11 22.5 23t32 22.5
t43.5 17.5t58 7q53 0 87.5 -17t54.5 -45.5t28 -66.5t8 -80v-34h-285q2 -22 9 -53.5t26 -61t54 -50t92 -20.5q23 0 45 3t47 11v-67z" />
    <glyph glyph-name="germandbls" unicode="&#xdf;" horiz-adv-x="537" 
d="M74 468q0 32 3.5 72.5t21.5 76t57 60t111 24.5q42 0 77 -12t60 -33.5t39 -53t14 -70.5q0 -42 -9.5 -70t-25 -45.5t-35 -27t-38.5 -15.5v-2q29 -4 55.5 -14.5t46.5 -31.5t31.5 -55t11.5 -85q0 -91 -49.5 -143t-152.5 -52q-40 0 -76 10v62q16 -5 32.5 -8.5t33.5 -3.5
q31 0 52.5 11t35 29.5t19 43.5t5.5 53q0 48 -9 78t-27 47t-44.5 23.5t-60.5 6.5v60q48 0 76 27.5t28 97.5q0 22 -5.5 42t-17 36t-29 25.5t-40.5 9.5q-38 0 -58.5 -15t-30 -36.5t-11 -45t-1.5 -41.5v-503h-90v468z" />
    <glyph glyph-name="divide" unicode="&#xf7;" horiz-adv-x="593" 
d="M238 509h117v-117h-117v117zM238 117h117v-117h-117v117zM58 299h477v-89h-477v89z" />
    <glyph glyph-name="registered" unicode="&#xae;" 
d="M206 488h54q16 0 27 7.5t11 24.5q0 33 -42 33h-50v-65zM161 596h83q18 0 36 -2.5t32.5 -10.5t23.5 -24t9 -43q0 -17 -4.5 -27t-11 -17t-14 -10.5t-13.5 -6.5l46 -107h-50l-38 100h-54v-100h-45v248zM50 466q0 -41 16 -77.5t43 -63.5t63.5 -43t77.5 -16t77.5 16t63.5 43
t43 63.5t16 77.5t-16 77.5t-43 63.5t-63.5 43t-77.5 16t-77.5 -16t-63.5 -43t-43 -63.5t-16 -77.5zM250 231q-48 0 -91 18.5t-75 50.5t-50.5 74.5t-18.5 91.5q0 48 18.5 91t50.5 75t75 50.5t91 18.5t91 -18.5t75 -50.5t50.5 -75t18.5 -91q0 -49 -18.5 -91.5t-50.5 -74.5
t-74.5 -50.5t-91.5 -18.5z" />
    <glyph glyph-name="ccedilla" unicode="&#xe7;" horiz-adv-x="426" 
d="M195 0q-45 13 -75 41t-48 63t-25.5 74.5t-7.5 76.5q0 50 11.5 92.5t36.5 73.5t63.5 48.5t91.5 17.5q51 0 83.5 -15t52 -39t27 -53.5t7.5 -58.5h-103q0 13 -2 30t-9.5 31.5t-22 24.5t-39.5 10q-45 0 -71 -39.5t-26 -105.5q0 -35 8.5 -73t30 -69t58 -51t92.5 -20
q19 0 37.5 2t38.5 8v-62q-26 -8 -58 -13t-74 -5h-11.5t-10.5 2l-13 -56q2 0 5 0.5t6 0.5q14 0 31.5 -4t32.5 -14t25.5 -27.5t10.5 -45.5q0 -44 -28.5 -73t-86.5 -29q-30 0 -47.5 8t-27.5 13v63q14 -11 30 -18.5t37 -7.5q23 0 33.5 14t10.5 30q0 18 -8.5 29t-20.5 16
t-25.5 6.5t-22.5 1.5q-5 0 -10.5 -1t-10.5 -2z" />
    <glyph glyph-name="plusminus" unicode="&#xb1;" horiz-adv-x="593" 
d="M248 210h-189v89h189v188h97v-188h190v-89h-190v-210h-97v210zM59 -49h476v-89h-476v89z" />
    <glyph glyph-name="Ccedilla" unicode="&#xc7;" horiz-adv-x="537" 
d="M250 -2q-44 10 -81.5 34.5t-64.5 67.5t-42.5 105.5t-15.5 147.5q0 69 12.5 132t42.5 111t80.5 76.5t125.5 28.5q53 0 94 -14.5t69.5 -41t43.5 -63.5t15 -81h-116q0 16 -3.5 36.5t-14.5 39t-33 31.5t-58 13q-49 0 -78 -26t-44.5 -64.5t-20.5 -82.5t-5 -79q0 -65 9 -120
t30 -95t56.5 -62.5t89.5 -22.5q32 0 58.5 7t47 16t34.5 18t21 13v-93q-11 -5 -29 -12t-42 -13.5t-52 -11t-58 -4.5h-8t-8 1l-13 -55q2 0 5 0.5t6 0.5q14 0 31.5 -4t32.5 -14t25.5 -27.5t10.5 -45.5q0 -44 -28.5 -73t-86.5 -29q-30 0 -47.5 8t-27.5 13v63q14 -11 30 -18.5
t37 -7.5q23 0 33.5 14t10.5 30q0 18 -8.5 29t-20.5 16t-25.5 6.5t-22.5 1.5q-5 0 -10.5 -1t-10.5 -2z" />
    <glyph glyph-name="copyright" unicode="&#xa9;" 
d="M357 375q-4 -4 -11.5 -10.5t-19 -13t-27.5 -11t-37 -4.5q-27 0 -52 10t-43.5 28t-30 42.5t-11.5 53.5t11.5 53.5t30.5 42.5t43.5 28t51.5 10q20 0 36 -4.5t27.5 -11t19 -13t12.5 -10.5l-26 -33q-9 8 -26 19.5t-43 11.5q-16 0 -32.5 -6t-30 -18t-22 -29.5t-8.5 -39.5
q0 -23 8.5 -40.5t21.5 -29t29 -17.5t30 -6q32 0 47.5 11t25.5 19zM50 466q0 -41 16 -77.5t43 -63.5t63.5 -43t77.5 -16t77.5 16t63.5 43t43 63.5t16 77.5t-16 77.5t-43 63.5t-63.5 43t-77.5 16t-77.5 -16t-63.5 -43t-43 -63.5t-16 -77.5zM250 231q-48 0 -91 18.5t-75 50.5
t-50.5 74.5t-18.5 91.5q0 48 18.5 91t50.5 75t75 50.5t91 18.5t91 -18.5t75 -50.5t50.5 -75t18.5 -91q0 -49 -18.5 -91.5t-50.5 -74.5t-74.5 -50.5t-91.5 -18.5z" />
    <glyph glyph-name="logicalnot" unicode="&#xac;" horiz-adv-x="593" 
d="M438 210h-380v89h477v-264h-97v175z" />
    <glyph glyph-name="trademark" unicode="&#x2122;" horiz-adv-x="611" 
d="M233 690h80l48 -228h2l49 228h80v-290h-44v262h-2l-57 -262h-53l-57 262h-2v-262h-44v290zM83 648h-73v42h190v-42h-73v-248h-44v248z" />
    <glyph glyph-name="degree" unicode="&#xb0;" horiz-adv-x="352" 
d="M116 531q0 -25 17.5 -43t42.5 -18q24 0 42 18t18 43q0 23 -18 40t-42 17q-25 0 -42.5 -17t-17.5 -40zM176 413q-24 0 -45 9.5t-37 25.5t-25.5 38t-9.5 46t9.5 44.5t25.5 35.5t37 24t45 9t45 -9t37 -24.5t25.5 -36.5t9.5 -45t-9.5 -45.5t-25.5 -37t-37 -25t-45 -9.5z" />
    <glyph glyph-name="mu" unicode="&#xb5;" horiz-adv-x="519" 
d="M79 476h90v-270q0 -23 2 -47t10.5 -44t26 -33t48.5 -13q34 0 53 25t27.5 60t10 74t1.5 68v180h90v-365q0 -21 7.5 -39t34.5 -18h15v-56q-11 -4 -28 -4q-34 0 -55 5t-33.5 15t-19 25.5t-10.5 37.5h-2q-6 -17 -14.5 -32.5t-21.5 -28t-30 -20t-41 -7.5q-32 0 -47.5 7.5
t-23.5 14.5v-214h-90v679z" />
    <glyph glyph-name="mu" unicode="&#x3bc;" horiz-adv-x="519" 
d="M79 476h90v-270q0 -23 2 -47t10.5 -44t26 -33t48.5 -13q34 0 53 25t27.5 60t10 74t1.5 68v180h90v-365q0 -21 7.5 -39t34.5 -18h15v-56q-11 -4 -28 -4q-34 0 -55 5t-33.5 15t-19 25.5t-10.5 37.5h-2q-6 -17 -14.5 -32.5t-21.5 -28t-30 -20t-41 -7.5q-32 0 -47.5 7.5
t-23.5 14.5v-214h-90v679z" />
    <glyph glyph-name="numbersign" unicode="#" horiz-adv-x="593" 
d="M231 263h98l28 107h-98zM130 189h-68l19 74h68l28 107h-69l19 74h69l49 190h82l-49 -190h98l49 190h82l-49 -190h71l-19 -74h-71l-28 -107h72l-19 -74h-72l-48 -189h-82l48 189h-98l-48 -189h-82z" />
    <glyph glyph-name="Aacute" unicode="&#xc1;" horiz-adv-x="611" 
d="M205 277h197l-95 321h-2zM244 690h123l236 -690h-106l-68 197h-247l-67 -197h-106zM320 940h121l-84 -167h-83z" />
    <glyph glyph-name="Acircumflex" unicode="&#xc2;" horiz-adv-x="611" 
d="M205 277h197l-95 321h-2zM244 690h123l236 -690h-106l-68 197h-247l-67 -197h-106zM250 922h108l99 -149h-81l-71 84l-69 -84h-81z" />
    <glyph glyph-name="Adieresis" unicode="&#xc4;" horiz-adv-x="611" 
d="M205 277h197l-95 321h-2zM244 690h123l236 -690h-106l-68 197h-247l-67 -197h-106zM347 895h123v-110h-123v110zM141 895h123v-110h-123v110z" />
    <glyph glyph-name="Agrave" unicode="&#xc0;" horiz-adv-x="611" 
d="M205 277h197l-95 321h-2zM244 690h123l236 -690h-106l-68 197h-247l-67 -197h-106zM180 940h121l46 -167h-83z" />
    <glyph glyph-name="Aring" unicode="&#xc5;" horiz-adv-x="611" 
d="M205 277h197l-95 321h-2zM244 690h123l236 -690h-106l-68 197h-247l-67 -197h-106zM261 873q0 -18 13.5 -30.5t31.5 -12.5q19 0 32 13t13 31q0 17 -13 28.5t-31 11.5q-20 0 -33 -12t-13 -29zM306 773q-21 0 -39.5 8t-32.5 21.5t-22 31.5t-8 39t8.5 39t23.5 31t34 20.5
t40 7.5q41 0 69.5 -28.5t28.5 -69.5q0 -21 -8 -39t-22 -31.5t-32.5 -21.5t-39.5 -8z" />
    <glyph glyph-name="Atilde" unicode="&#xc3;" horiz-adv-x="611" 
d="M205 277h197l-95 321h-2zM244 690h123l236 -690h-106l-68 197h-247l-67 -197h-106zM168 783q0 25 1.5 55t8.5 45q6 12 14 19.5t16.5 11.5t16 5t10.5 1q16 0 36 -10.5t39 -22.5q20 -13 35.5 -23.5t22.5 -10.5q13 0 15 14.5t2 43.5h59q0 -30 -1.5 -55.5t-8 -44t-19.5 -28.5
t-36 -10q-21 0 -41.5 9.5t-38.5 21t-32 21t-21 9.5q-13 0 -16 -10.5t-3 -27.5v-13h-59z" />
    <glyph glyph-name="Eacute" unicode="&#xc9;" 
d="M80 690h381v-80h-281v-211h267v-80h-267v-239h290v-80h-390v690zM274 940h121l-84 -167h-83z" />
    <glyph glyph-name="Ecircumflex" unicode="&#xca;" 
d="M80 690h381v-80h-281v-211h267v-80h-267v-239h290v-80h-390v690zM209 922h108l99 -149h-81l-71 84l-69 -84h-81z" />
    <glyph glyph-name="Edieresis" unicode="&#xcb;" 
d="M80 690h381v-80h-281v-211h267v-80h-267v-239h290v-80h-390v690zM316 895h123v-110h-123v110zM110 895h123v-110h-123v110z" />
    <glyph glyph-name="Egrave" unicode="&#xc8;" 
d="M80 690h381v-80h-281v-211h267v-80h-267v-239h290v-80h-390v690zM139 940h121l46 -167h-83z" />
    <glyph glyph-name="Iacute" unicode="&#xcd;" horiz-adv-x="259" 
d="M80 690h100v-690h-100v690zM140 940h121l-84 -167h-83z" />
    <glyph glyph-name="Icircumflex" unicode="&#xce;" horiz-adv-x="259" 
d="M80 690h100v-690h-100v690zM75 922h108l99 -149h-81l-71 84l-69 -84h-81z" />
    <glyph glyph-name="Idieresis" unicode="&#xcf;" horiz-adv-x="259" 
d="M80 690h100v-690h-100v690zM172 895h123v-110h-123v110zM-34 895h123v-110h-123v110z" />
    <glyph glyph-name="Igrave" unicode="&#xcc;" horiz-adv-x="259" 
d="M80 690h100v-690h-100v690zM5 940h121l46 -167h-83z" />
    <glyph glyph-name="Ntilde" unicode="&#xd1;" horiz-adv-x="648" 
d="M80 690h125l272 -540h2v540h90v-690h-118l-279 553h-2v-553h-90v690zM186 783q0 25 1.5 55t8.5 45q6 12 14 19.5t16.5 11.5t16 5t10.5 1q16 0 36 -10.5t39 -22.5q20 -13 35.5 -23.5t22.5 -10.5q13 0 15 14.5t2 43.5h59q0 -30 -1.5 -55.5t-8 -44t-19.5 -28.5t-36 -10
q-21 0 -41.5 9.5t-38.5 21t-32 21t-21 9.5q-13 0 -16 -10.5t-3 -27.5v-13h-59z" />
    <glyph glyph-name="Oacute" unicode="&#xd3;" horiz-adv-x="630" 
d="M156 345q0 -42 5.5 -90.5t22.5 -90t48 -68.5t83 -27t83.5 27t48.5 68.5t22.5 90t5.5 90.5t-5.5 90.5t-22.5 90t-48.5 68.5t-83.5 27t-83 -27t-48 -68.5t-22.5 -90t-5.5 -90.5zM315 -11q-80 0 -131.5 29.5t-82.5 79t-43 113.5t-12 134t12 134.5t43 113.5t82.5 78.5
t131.5 29.5q79 0 131.5 -29.5t83 -78.5t43 -113.5t12.5 -134.5t-12.5 -134t-43 -113.5t-83 -79t-131.5 -29.5zM319 940h121l-84 -167h-83z" />
    <glyph glyph-name="Ocircumflex" unicode="&#xd4;" horiz-adv-x="630" 
d="M156 345q0 -42 5.5 -90.5t22.5 -90t48 -68.5t83 -27t83.5 27t48.5 68.5t22.5 90t5.5 90.5t-5.5 90.5t-22.5 90t-48.5 68.5t-83.5 27t-83 -27t-48 -68.5t-22.5 -90t-5.5 -90.5zM315 -11q-80 0 -131.5 29.5t-82.5 79t-43 113.5t-12 134t12 134.5t43 113.5t82.5 78.5
t131.5 29.5q79 0 131.5 -29.5t83 -78.5t43 -113.5t12.5 -134.5t-12.5 -134t-43 -113.5t-83 -79t-131.5 -29.5zM259 922h108l99 -149h-81l-71 84l-69 -84h-81z" />
    <glyph glyph-name="Odieresis" unicode="&#xd6;" horiz-adv-x="630" 
d="M156 345q0 -42 5.5 -90.5t22.5 -90t48 -68.5t83 -27t83.5 27t48.5 68.5t22.5 90t5.5 90.5t-5.5 90.5t-22.5 90t-48.5 68.5t-83.5 27t-83 -27t-48 -68.5t-22.5 -90t-5.5 -90.5zM315 -11q-80 0 -131.5 29.5t-82.5 79t-43 113.5t-12 134t12 134.5t43 113.5t82.5 78.5
t131.5 29.5q79 0 131.5 -29.5t83 -78.5t43 -113.5t12.5 -134.5t-12.5 -134t-43 -113.5t-83 -79t-131.5 -29.5zM356 895h123v-110h-123v110zM150 895h123v-110h-123v110z" />
    <glyph glyph-name="Ograve" unicode="&#xd2;" horiz-adv-x="630" 
d="M156 345q0 -42 5.5 -90.5t22.5 -90t48 -68.5t83 -27t83.5 27t48.5 68.5t22.5 90t5.5 90.5t-5.5 90.5t-22.5 90t-48.5 68.5t-83.5 27t-83 -27t-48 -68.5t-22.5 -90t-5.5 -90.5zM315 -11q-80 0 -131.5 29.5t-82.5 79t-43 113.5t-12 134t12 134.5t43 113.5t82.5 78.5
t131.5 29.5q79 0 131.5 -29.5t83 -78.5t43 -113.5t12.5 -134.5t-12.5 -134t-43 -113.5t-83 -79t-131.5 -29.5zM189 940h121l46 -167h-83z" />
    <glyph glyph-name="Otilde" unicode="&#xd5;" horiz-adv-x="630" 
d="M156 345q0 -42 5.5 -90.5t22.5 -90t48 -68.5t83 -27t83.5 27t48.5 68.5t22.5 90t5.5 90.5t-5.5 90.5t-22.5 90t-48.5 68.5t-83.5 27t-83 -27t-48 -68.5t-22.5 -90t-5.5 -90.5zM315 -11q-80 0 -131.5 29.5t-82.5 79t-43 113.5t-12 134t12 134.5t43 113.5t82.5 78.5
t131.5 29.5q79 0 131.5 -29.5t83 -78.5t43 -113.5t12.5 -134.5t-12.5 -134t-43 -113.5t-83 -79t-131.5 -29.5zM177 783q0 25 1.5 55t8.5 45q6 12 14 19.5t16.5 11.5t16 5t10.5 1q16 0 36 -10.5t39 -22.5q20 -13 35.5 -23.5t22.5 -10.5q13 0 15 14.5t2 43.5h59
q0 -30 -1.5 -55.5t-8 -44t-19.5 -28.5t-36 -10q-21 0 -41.5 9.5t-38.5 21t-32 21t-21 9.5q-13 0 -16 -10.5t-3 -27.5v-13h-59z" />
    <glyph glyph-name="Uacute" unicode="&#xda;" horiz-adv-x="611" 
d="M540 204q0 -56 -17.5 -96.5t-49 -66.5t-74.5 -39t-94 -13q-50 0 -93 13t-74 39t-48.5 66.5t-17.5 96.5v486h100v-467q0 -19 2 -45.5t14.5 -50.5t39 -41t76.5 -17q51 0 78.5 17t40.5 41t15 50.5t2 45.5v467h100v-486zM310 940h121l-84 -167h-83z" />
    <glyph glyph-name="Ucircumflex" unicode="&#xdb;" horiz-adv-x="611" 
d="M540 204q0 -56 -17.5 -96.5t-49 -66.5t-74.5 -39t-94 -13q-50 0 -93 13t-74 39t-48.5 66.5t-17.5 96.5v486h100v-467q0 -19 2 -45.5t14.5 -50.5t39 -41t76.5 -17q51 0 78.5 17t40.5 41t15 50.5t2 45.5v467h100v-486zM250 922h108l99 -149h-81l-71 84l-69 -84h-81z" />
    <glyph glyph-name="Udieresis" unicode="&#xdc;" horiz-adv-x="611" 
d="M540 204q0 -56 -17.5 -96.5t-49 -66.5t-74.5 -39t-94 -13q-50 0 -93 13t-74 39t-48.5 66.5t-17.5 96.5v486h100v-467q0 -19 2 -45.5t14.5 -50.5t39 -41t76.5 -17q51 0 78.5 17t40.5 41t15 50.5t2 45.5v467h100v-486zM347 895h123v-110h-123v110zM141 895h123v-110h-123
v110z" />
    <glyph glyph-name="Ugrave" unicode="&#xd9;" horiz-adv-x="611" 
d="M540 204q0 -56 -17.5 -96.5t-49 -66.5t-74.5 -39t-94 -13q-50 0 -93 13t-74 39t-48.5 66.5t-17.5 96.5v486h100v-467q0 -19 2 -45.5t14.5 -50.5t39 -41t76.5 -17q51 0 78.5 17t40.5 41t15 50.5t2 45.5v467h100v-486zM180 940h121l46 -167h-83z" />
    <glyph glyph-name="Ydieresis" unicode="&#x178;" horiz-adv-x="519" 
d="M209 319l-221 371h110l161 -266l162 266h110l-222 -371v-319h-100v319zM301 895h123v-110h-123v110zM95 895h123v-110h-123v110z" />
    <glyph glyph-name="aacute" unicode="&#xe1;" horiz-adv-x="463" 
d="M285 213q-27 0 -52.5 -6t-45.5 -17.5t-32 -29t-12 -40.5q0 -28 16 -44.5t36 -16.5q23 0 43 12t34.5 30.5t22.5 41t8 43.5v27h-18zM303 59h-2q-5 -10 -14.5 -22t-24.5 -22.5t-36 -18t-48 -7.5q-67 0 -101 36t-34 92q0 47 23.5 77.5t61 48t84 24t91.5 6.5v83
q-6 35 -26.5 48t-46.5 13q-41 0 -58.5 -22t-17.5 -51h-95q0 28 9 54t30 46t55 31.5t84 11.5q58 0 90 -19t46.5 -45t17 -53t2.5 -43v-327h-90v59zM236 726h121l-84 -167h-83z" />
    <glyph glyph-name="acircumflex" unicode="&#xe2;" horiz-adv-x="463" 
d="M285 213q-27 0 -52.5 -6t-45.5 -17.5t-32 -29t-12 -40.5q0 -28 16 -44.5t36 -16.5q23 0 43 12t34.5 30.5t22.5 41t8 43.5v27h-18zM303 59h-2q-5 -10 -14.5 -22t-24.5 -22.5t-36 -18t-48 -7.5q-67 0 -101 36t-34 92q0 47 23.5 77.5t61 48t84 24t91.5 6.5v83
q-6 35 -26.5 48t-46.5 13q-41 0 -58.5 -22t-17.5 -51h-95q0 28 9 54t30 46t55 31.5t84 11.5q58 0 90 -19t46.5 -45t17 -53t2.5 -43v-327h-90v59zM176 708h108l99 -149h-81l-71 84l-69 -84h-81z" />
    <glyph glyph-name="adieresis" unicode="&#xe4;" horiz-adv-x="463" 
d="M285 213q-27 0 -52.5 -6t-45.5 -17.5t-32 -29t-12 -40.5q0 -28 16 -44.5t36 -16.5q23 0 43 12t34.5 30.5t22.5 41t8 43.5v27h-18zM303 59h-2q-5 -10 -14.5 -22t-24.5 -22.5t-36 -18t-48 -7.5q-67 0 -101 36t-34 92q0 47 23.5 77.5t61 48t84 24t91.5 6.5v83
q-6 35 -26.5 48t-46.5 13q-41 0 -58.5 -22t-17.5 -51h-95q0 28 9 54t30 46t55 31.5t84 11.5q58 0 90 -19t46.5 -45t17 -53t2.5 -43v-327h-90v59zM273 681h123v-110h-123v110zM67 681h123v-110h-123v110z" />
    <glyph glyph-name="agrave" unicode="&#xe0;" horiz-adv-x="463" 
d="M285 213q-27 0 -52.5 -6t-45.5 -17.5t-32 -29t-12 -40.5q0 -28 16 -44.5t36 -16.5q23 0 43 12t34.5 30.5t22.5 41t8 43.5v27h-18zM303 59h-2q-5 -10 -14.5 -22t-24.5 -22.5t-36 -18t-48 -7.5q-67 0 -101 36t-34 92q0 47 23.5 77.5t61 48t84 24t91.5 6.5v83
q-6 35 -26.5 48t-46.5 13q-41 0 -58.5 -22t-17.5 -51h-95q0 28 9 54t30 46t55 31.5t84 11.5q58 0 90 -19t46.5 -45t17 -53t2.5 -43v-327h-90v59zM106 726h121l46 -167h-83z" />
    <glyph glyph-name="aring" unicode="&#xe5;" horiz-adv-x="463" 
d="M285 213q-27 0 -52.5 -6t-45.5 -17.5t-32 -29t-12 -40.5q0 -28 16 -44.5t36 -16.5q23 0 43 12t34.5 30.5t22.5 41t8 43.5v27h-18zM303 59h-2q-5 -10 -14.5 -22t-24.5 -22.5t-36 -18t-48 -7.5q-67 0 -101 36t-34 92q0 47 23.5 77.5t61 48t84 24t91.5 6.5v83
q-6 35 -26.5 48t-46.5 13q-41 0 -58.5 -22t-17.5 -51h-95q0 28 9 54t30 46t55 31.5t84 11.5q58 0 90 -19t46.5 -45t17 -53t2.5 -43v-327h-90v59zM187 659q0 -18 13.5 -30.5t31.5 -12.5q19 0 32 13t13 31q0 17 -13 28.5t-31 11.5q-20 0 -33 -12t-13 -29zM232 559
q-21 0 -39.5 8t-32.5 21.5t-22 31.5t-8 39t8.5 39t23.5 31t34 20.5t40 7.5q41 0 69.5 -28.5t28.5 -69.5q0 -21 -8 -39t-22 -31.5t-32.5 -21.5t-39.5 -8z" />
    <glyph glyph-name="atilde" unicode="&#xe3;" horiz-adv-x="463" 
d="M285 213q-27 0 -52.5 -6t-45.5 -17.5t-32 -29t-12 -40.5q0 -28 16 -44.5t36 -16.5q23 0 43 12t34.5 30.5t22.5 41t8 43.5v27h-18zM303 59h-2q-5 -10 -14.5 -22t-24.5 -22.5t-36 -18t-48 -7.5q-67 0 -101 36t-34 92q0 47 23.5 77.5t61 48t84 24t91.5 6.5v83
q-6 35 -26.5 48t-46.5 13q-41 0 -58.5 -22t-17.5 -51h-95q0 28 9 54t30 46t55 31.5t84 11.5q58 0 90 -19t46.5 -45t17 -53t2.5 -43v-327h-90v59zM94 569q0 25 1.5 55t8.5 45q6 12 14 19.5t16.5 11.5t16 5t10.5 1q16 0 36 -10.5t39 -22.5q20 -13 35.5 -23.5t22.5 -10.5
q13 0 15 14.5t2 43.5h59q0 -30 -1.5 -55.5t-8 -44t-19.5 -28.5t-36 -10q-21 0 -41.5 9.5t-38.5 21t-32 21t-21 9.5q-13 0 -16 -10.5t-3 -27.5v-13h-59z" />
    <glyph glyph-name="eacute" unicode="&#xe9;" horiz-adv-x="444" 
d="M316 333q0 11 -4 25.5t-13.5 27.5t-26.5 22t-43 9q-28 0 -46 -10t-29 -24t-15.5 -28t-4.5 -22h182zM395 5q-29 -7 -54.5 -11.5t-64.5 -4.5q-108 0 -172 66t-64 206q0 76 21.5 121t52.5 68.5t64 30t56 6.5q43 0 75.5 -14t54 -39.5t32 -60.5t10.5 -77v-23h-276q0 -33 9 -71
t29.5 -69.5t54 -52.5t82.5 -21q31 0 52.5 6t37.5 11v-71zM236 726h121l-84 -167h-83z" />
    <glyph glyph-name="ecircumflex" unicode="&#xea;" horiz-adv-x="444" 
d="M316 333q0 11 -4 25.5t-13.5 27.5t-26.5 22t-43 9q-28 0 -46 -10t-29 -24t-15.5 -28t-4.5 -22h182zM395 5q-29 -7 -54.5 -11.5t-64.5 -4.5q-108 0 -172 66t-64 206q0 76 21.5 121t52.5 68.5t64 30t56 6.5q43 0 75.5 -14t54 -39.5t32 -60.5t10.5 -77v-23h-276q0 -33 9 -71
t29.5 -69.5t54 -52.5t82.5 -21q31 0 52.5 6t37.5 11v-71zM176 708h108l99 -149h-81l-71 84l-69 -84h-81z" />
    <glyph glyph-name="edieresis" unicode="&#xeb;" horiz-adv-x="444" 
d="M316 333q0 11 -4 25.5t-13.5 27.5t-26.5 22t-43 9q-28 0 -46 -10t-29 -24t-15.5 -28t-4.5 -22h182zM395 5q-29 -7 -54.5 -11.5t-64.5 -4.5q-108 0 -172 66t-64 206q0 76 21.5 121t52.5 68.5t64 30t56 6.5q43 0 75.5 -14t54 -39.5t32 -60.5t10.5 -77v-23h-276q0 -33 9 -71
t29.5 -69.5t54 -52.5t82.5 -21q31 0 52.5 6t37.5 11v-71zM263 681h123v-110h-123v110zM57 681h123v-110h-123v110z" />
    <glyph glyph-name="egrave" unicode="&#xe8;" horiz-adv-x="444" 
d="M316 333q0 11 -4 25.5t-13.5 27.5t-26.5 22t-43 9q-28 0 -46 -10t-29 -24t-15.5 -28t-4.5 -22h182zM395 5q-29 -7 -54.5 -11.5t-64.5 -4.5q-108 0 -172 66t-64 206q0 76 21.5 121t52.5 68.5t64 30t56 6.5q43 0 75.5 -14t54 -39.5t32 -60.5t10.5 -77v-23h-276q0 -33 9 -71
t29.5 -69.5t54 -52.5t82.5 -21q31 0 52.5 6t37.5 11v-71zM106 726h121l46 -167h-83z" />
    <glyph glyph-name="iacute" unicode="&#xed;" horiz-adv-x="259" 
d="M84 476h90v-476h-90v476zM135 726h121l-84 -167h-83z" />
    <glyph glyph-name="icircumflex" unicode="&#xee;" horiz-adv-x="259" 
d="M84 476h90v-476h-90v476zM75 708h108l99 -149h-81l-71 84l-69 -84h-81z" />
    <glyph glyph-name="idieresis" unicode="&#xef;" horiz-adv-x="259" 
d="M84 476h90v-476h-90v476zM172 681h123v-110h-123v110zM-34 681h123v-110h-123v110z" />
    <glyph glyph-name="igrave" unicode="&#xec;" horiz-adv-x="259" 
d="M84 476h90v-476h-90v476zM5 726h121l46 -167h-83z" />
    <glyph glyph-name="ntilde" unicode="&#xf1;" horiz-adv-x="519" 
d="M74 476h90v-102h2q6 15 16.5 34.5t28.5 37t44 29.5t62 12q41 0 66.5 -16t39 -40t18 -51.5t4.5 -49.5v-330h-90v260q0 33 -1 58.5t-7 43t-19.5 26.5t-37.5 9q-28 0 -51 -17t-39.5 -45t-26 -62.5t-9.5 -70.5v-202h-90v476zM122 569q0 25 1.5 55t8.5 45q6 12 14 19.5
t16.5 11.5t16 5t10.5 1q16 0 36 -10.5t39 -22.5q20 -13 35.5 -23.5t22.5 -10.5q13 0 15 14.5t2 43.5h59q0 -30 -1.5 -55.5t-8 -44t-19.5 -28.5t-36 -10q-21 0 -41.5 9.5t-38.5 21t-32 21t-21 9.5q-13 0 -16 -10.5t-3 -27.5v-13h-59z" />
    <glyph glyph-name="oacute" unicode="&#xf3;" 
d="M140 238q0 -29 3.5 -60.5t15 -57.5t33.5 -43.5t59 -17.5q36 0 58 17.5t33.5 43.5t15 57.5t3.5 60.5t-3.5 60.5t-15 58t-33.5 43.5t-58 17q-37 0 -59 -17t-33.5 -43.5t-15 -58t-3.5 -60.5zM251 -11q-54 0 -93.5 18t-66 50.5t-39 78.5t-12.5 102q0 114 51.5 181.5
t159.5 67.5q107 0 158.5 -67.5t51.5 -181.5q0 -56 -12.5 -102t-38.5 -78.5t-65.5 -50.5t-93.5 -18zM254 726h121l-84 -167h-83z" />
    <glyph glyph-name="ocircumflex" unicode="&#xf4;" 
d="M140 238q0 -29 3.5 -60.5t15 -57.5t33.5 -43.5t59 -17.5q36 0 58 17.5t33.5 43.5t15 57.5t3.5 60.5t-3.5 60.5t-15 58t-33.5 43.5t-58 17q-37 0 -59 -17t-33.5 -43.5t-15 -58t-3.5 -60.5zM251 -11q-54 0 -93.5 18t-66 50.5t-39 78.5t-12.5 102q0 114 51.5 181.5
t159.5 67.5q107 0 158.5 -67.5t51.5 -181.5q0 -56 -12.5 -102t-38.5 -78.5t-65.5 -50.5t-93.5 -18zM194 708h108l99 -149h-81l-71 84l-69 -84h-81z" />
    <glyph glyph-name="odieresis" unicode="&#xf6;" 
d="M140 238q0 -29 3.5 -60.5t15 -57.5t33.5 -43.5t59 -17.5q36 0 58 17.5t33.5 43.5t15 57.5t3.5 60.5t-3.5 60.5t-15 58t-33.5 43.5t-58 17q-37 0 -59 -17t-33.5 -43.5t-15 -58t-3.5 -60.5zM251 -11q-54 0 -93.5 18t-66 50.5t-39 78.5t-12.5 102q0 114 51.5 181.5
t159.5 67.5q107 0 158.5 -67.5t51.5 -181.5q0 -56 -12.5 -102t-38.5 -78.5t-65.5 -50.5t-93.5 -18zM291 681h123v-110h-123v110zM85 681h123v-110h-123v110z" />
    <glyph glyph-name="ograve" unicode="&#xf2;" 
d="M140 238q0 -29 3.5 -60.5t15 -57.5t33.5 -43.5t59 -17.5q36 0 58 17.5t33.5 43.5t15 57.5t3.5 60.5t-3.5 60.5t-15 58t-33.5 43.5t-58 17q-37 0 -59 -17t-33.5 -43.5t-15 -58t-3.5 -60.5zM251 -11q-54 0 -93.5 18t-66 50.5t-39 78.5t-12.5 102q0 114 51.5 181.5
t159.5 67.5q107 0 158.5 -67.5t51.5 -181.5q0 -56 -12.5 -102t-38.5 -78.5t-65.5 -50.5t-93.5 -18zM124 726h121l46 -167h-83z" />
    <glyph glyph-name="otilde" unicode="&#xf5;" 
d="M140 238q0 -29 3.5 -60.5t15 -57.5t33.5 -43.5t59 -17.5q36 0 58 17.5t33.5 43.5t15 57.5t3.5 60.5t-3.5 60.5t-15 58t-33.5 43.5t-58 17q-37 0 -59 -17t-33.5 -43.5t-15 -58t-3.5 -60.5zM251 -11q-54 0 -93.5 18t-66 50.5t-39 78.5t-12.5 102q0 114 51.5 181.5
t159.5 67.5q107 0 158.5 -67.5t51.5 -181.5q0 -56 -12.5 -102t-38.5 -78.5t-65.5 -50.5t-93.5 -18zM112 569q0 25 1.5 55t8.5 45q6 12 14 19.5t16.5 11.5t16 5t10.5 1q16 0 36 -10.5t39 -22.5q20 -13 35.5 -23.5t22.5 -10.5q13 0 15 14.5t2 43.5h59q0 -30 -1.5 -55.5t-8 -44
t-19.5 -28.5t-36 -10q-21 0 -41.5 9.5t-38.5 21t-32 21t-21 9.5q-13 0 -16 -10.5t-3 -27.5v-13h-59z" />
    <glyph glyph-name="uacute" unicode="&#xfa;" horiz-adv-x="519" 
d="M350 102h-2q-6 -15 -16.5 -34.5t-28.5 -37t-44 -29.5t-62 -12q-41 0 -66.5 16t-39 40t-18 51.5t-4.5 49.5v330h90v-260q0 -33 1 -59t7 -43t19.5 -26t37.5 -9q28 0 51 17t39.5 45t26 62.5t9.5 70.5v202h90v-476h-90v102zM264 726h121l-84 -167h-83z" />
    <glyph glyph-name="ucircumflex" unicode="&#xfb;" horiz-adv-x="519" 
d="M350 102h-2q-6 -15 -16.5 -34.5t-28.5 -37t-44 -29.5t-62 -12q-41 0 -66.5 16t-39 40t-18 51.5t-4.5 49.5v330h90v-260q0 -33 1 -59t7 -43t19.5 -26t37.5 -9q28 0 51 17t39.5 45t26 62.5t9.5 70.5v202h90v-476h-90v102zM204 708h108l99 -149h-81l-71 84l-69 -84h-81z" />
    <glyph glyph-name="udieresis" unicode="&#xfc;" horiz-adv-x="519" 
d="M350 102h-2q-6 -15 -16.5 -34.5t-28.5 -37t-44 -29.5t-62 -12q-41 0 -66.5 16t-39 40t-18 51.5t-4.5 49.5v330h90v-260q0 -33 1 -59t7 -43t19.5 -26t37.5 -9q28 0 51 17t39.5 45t26 62.5t9.5 70.5v202h90v-476h-90v102zM301 681h123v-110h-123v110zM95 681h123v-110h-123
v110z" />
    <glyph glyph-name="ugrave" unicode="&#xf9;" horiz-adv-x="519" 
d="M350 102h-2q-6 -15 -16.5 -34.5t-28.5 -37t-44 -29.5t-62 -12q-41 0 -66.5 16t-39 40t-18 51.5t-4.5 49.5v330h90v-260q0 -33 1 -59t7 -43t19.5 -26t37.5 -9q28 0 51 17t39.5 45t26 62.5t9.5 70.5v202h90v-476h-90v102zM134 726h121l46 -167h-83z" />
    <glyph glyph-name="ydieresis" unicode="&#xff;" horiz-adv-x="444" 
d="M184 -3l-181 479h100l125 -344h2l112 344h100l-237 -681h-88zM263 681h123v-110h-123v110zM57 681h123v-110h-123v110z" />
    <glyph glyph-name="exclam" unicode="!" horiz-adv-x="296" 
d="M125 121h121v-121h-121v121zM134 690h103l-8 -493h-87z" />
    <glyph glyph-name="quotedbl" unicode="&#x22;" horiz-adv-x="407" 
d="M230 690h116l-20 -228h-76zM62 690h116l-20 -228h-77z" />
    <glyph glyph-name="Lslash" unicode="&#x141;" horiz-adv-x="444" 
d="M80 258l-80 -61v81l80 62v350h100v-271l160 124v-86l-160 -122v-255h265v-80h-365v258z" />
    <glyph glyph-name="lslash" unicode="&#x142;" horiz-adv-x="259" 
d="M79 278l-80 -63v71l80 63v341h100v-261l81 63v-71l-81 -63v-358h-100v278z" />
    <glyph glyph-name="threequarters" unicode="&#xbe;" horiz-adv-x="852" 
d="M504 634h77l-233 -634h-77zM40 545q0 16 7.5 34t24 32.5t42 24t61.5 9.5q56 0 94 -29t38 -85q0 -23 -6.5 -40.5t-17 -29t-22.5 -18.5t-24 -9v-2q32 -8 55 -31.5t23 -76.5q0 -69 -38 -99t-102 -30q-42 0 -69 9.5t-43.5 24t-23.5 32.5t-8 35h77q0 -8 3 -17t10 -16.5
t19 -12.5t31 -5q72 0 72 80q0 30 -9 46.5t-23 24t-30.5 9.5t-30.5 2v49q13 0 28 1.5t27.5 8t21 20.5t8.5 40q0 32 -13 50.5t-46 18.5q-36 0 -48.5 -15.5t-13.5 -34.5h-74zM571 167h127v196h-2zM698 113h-190v49l179 271h77v-266h73v-54h-73v-113h-66v113z" />
    <glyph glyph-name="onequarter" unicode="&#xbc;" horiz-adv-x="852" 
d="M136 573l-86 -53v60l97 54h55v-432h-66v371zM469 634h77l-233 -634h-77zM536 167h127v196h-2zM663 113h-190v49l179 271h77v-266h73v-54h-73v-113h-66v113z" />
    <glyph glyph-name="onesuperior" unicode="&#xb9;" horiz-adv-x="370" 
d="M171 573l-86 -53v60l97 54h55v-432h-66v371z" />
    <glyph glyph-name="multiply" unicode="&#xd7;" horiz-adv-x="593" 
d="M59 68l170 178l-167 182l72 64l164 -174l162 174l74 -64l-169 -180l169 -180l-71 -68l-166 176l-168 -176z" />
    <glyph glyph-name="Thorn" unicode="&#xde;" horiz-adv-x="611" 
d="M184 234h156q55 0 84 31t29 94q0 61 -29 93.5t-84 32.5h-156v-251zM84 690h100v-125h154q39 0 79 -4.5t72.5 -24.5t53 -60.5t20.5 -112.5q0 -75 -20.5 -117t-53 -62.5t-72.5 -25t-79 -4.5h-154v-154h-100v690z" />
    <glyph glyph-name="brokenbar" unicode="&#xa6;" horiz-adv-x="259" 
d="M81 760h97v-358h-97v358zM81 223h97v-359h-97v359z" />
    <glyph glyph-name="Eth" unicode="&#xd0;" horiz-adv-x="593" 
d="M180 80h59q47 1 84 12t62.5 40t39 80.5t13.5 132.5q0 82 -13.5 134t-39 81t-63 39.5t-84.5 10.5h-58v-223h133v-56h-133v-251zM80 331h-80v56h80v303h177q79 0 134 -21.5t90 -64.5t51 -107.5t16 -149.5q0 -107 -23 -175t-62.5 -106t-92.5 -52t-113 -14h-177v331z" />
    <glyph glyph-name="onehalf" unicode="&#xbd;" horiz-adv-x="852" 
d="M504 55q12 9 31.5 26.5t42.5 40.5t45.5 50t41.5 54.5t30.5 54.5t11.5 49q0 26 -15 45t-47 19q-37 0 -51.5 -18t-14.5 -40h-74q1 17 7.5 36t22.5 35t42.5 26.5t67.5 10.5q28 0 52.5 -8t42.5 -23t28.5 -37t10.5 -51q0 -45 -20.5 -85t-50.5 -74t-63.5 -61.5t-58.5 -48.5v-2
h197v-54h-279v55zM155 573l-86 -53v60l97 54h55v-432h-66v371zM465 634h78l-234 -634h-76z" />
    <glyph glyph-name="minus" unicode="&#x2212;" horiz-adv-x="593" 
d="M58 299h477v-89h-477v89z" />
    <glyph glyph-name="eth" unicode="&#xf0;" 
d="M147 238q0 -29 3.5 -60.5t14.5 -57.5t31.5 -43.5t54.5 -17.5t54.5 17.5t31 43.5t14 57.5t3.5 60.5t-3.5 60.5t-14 58t-31 43.5t-54.5 17t-54.5 -17t-31.5 -43.5t-14.5 -58t-3.5 -60.5zM321 574q20 -23 43 -52.5t43 -70t33.5 -93t13.5 -120.5q0 -56 -12.5 -102
t-37.5 -78.5t-63 -50.5t-90 -18t-90.5 18t-63.5 50.5t-37.5 78.5t-12.5 102q0 57 12.5 103t36 78.5t57.5 50t77 17.5q36 0 56.5 -10t28.5 -18l2 2q-14 21 -31.5 43t-41.5 42l-96 -36l-16 44l69 26q-24 14 -50 28.5t-50 22.5v3h142q10 -6 19.5 -12t18.5 -13l78 30l16 -44z
" />
    <glyph glyph-name="thorn" unicode="&#xfe;" 
d="M158 237q0 -31 5 -63t17 -57.5t32 -41.5t50 -16q26 0 44 14t29 38t15.5 56.5t4.5 70.5q0 27 -3 58.5t-12.5 58t-28.5 44.5t-51 18q-27 0 -46.5 -17t-31.5 -43.5t-18 -58t-6 -61.5zM68 690h90v-287h2q4 10 13.5 24.5t25.5 27.5t39 22.5t54 9.5q43 0 74 -18.5t51 -51
t29 -76.5t9 -95q0 -59 -11 -106.5t-32.5 -81t-53 -51.5t-71.5 -18q-30 0 -51.5 8t-37 20t-25 25t-13.5 24h-2v-280h-90v904z" />
    <glyph glyph-name="twosuperior" unicode="&#xb2;" horiz-adv-x="370" 
d="M38 256q12 9 31.5 27t42.5 41t45.5 50t41.5 54.5t30.5 54t11.5 49.5q0 25 -15 44t-47 19q-37 0 -51.5 -17.5t-14.5 -39.5h-74q1 17 7.5 36t22.5 34.5t42.5 26t67.5 10.5q28 0 52.5 -8t42.5 -23t28.5 -37t10.5 -50q0 -45 -20.5 -85t-50.5 -74t-63.5 -61.5t-58.5 -48.5v-2
h197v-54h-279v54z" />
    <glyph glyph-name="threesuperior" unicode="&#xb3;" horiz-adv-x="370" 
d="M40 545q0 16 7.5 34t24 32.5t42 24t61.5 9.5q56 0 94 -29t38 -85q0 -23 -6.5 -40.5t-17 -29t-22.5 -18.5t-24 -9v-2q32 -8 55 -31.5t23 -76.5q0 -69 -38 -99t-102 -30q-42 0 -69 9.5t-43.5 24t-23.5 32.5t-8 35h77q0 -8 3 -17t10 -16.5t19 -12.5t31 -5q72 0 72 80
q0 30 -9 46t-23 23.5t-30.5 9.5t-30.5 2v50q13 0 28 1.5t27.5 8t21 20.5t8.5 40q0 32 -13 50.5t-46 18.5q-36 0 -48.5 -15.5t-13.5 -34.5h-74z" />
    <glyph glyph-name="Scaron" unicode="&#x160;" 
d="M330 375q25 -14 51 -30.5t47 -38t34 -51t13 -70.5q0 -50 -19 -87t-52.5 -61t-79 -36t-98.5 -12q-31 0 -59 3t-51.5 7.5t-40 9t-24.5 7.5v104q30 -17 77.5 -34t105.5 -17q24 0 47.5 5.5t42 17.5t30 31.5t11.5 47.5q0 27 -10 46.5t-26 35t-36 27.5l-40 24l-63 37
q-24 14 -50.5 29t-48.5 36t-36.5 49t-14.5 68q0 46 17.5 79.5t48.5 55.5t73 32.5t90 10.5q25 0 49.5 -2.5t45.5 -5.5t37 -6.5t25 -5.5v-94q-5 1 -21 6.5t-38.5 11.5t-49.5 11t-53 5q-51 0 -82.5 -23t-31.5 -67q0 -20 10.5 -36.5t26.5 -30.5t36 -26t39 -23zM99 922h81l71 -84
l69 84h81l-96 -149h-108z" />
    <glyph glyph-name="Yacute" unicode="&#xdd;" horiz-adv-x="519" 
d="M209 319l-221 371h110l161 -266l162 266h110l-222 -371v-319h-100v319zM264 940h121l-84 -167h-83z" />
    <glyph glyph-name="Zcaron" unicode="&#x17d;" 
d="M20 81l328 529h-311v80h427v-81l-326 -529h342v-80h-460v81zM99 922h81l71 -84l69 84h81l-96 -149h-108z" />
    <glyph glyph-name="scaron" unicode="&#x161;" horiz-adv-x="370" 
d="M234 274q19 -12 38.5 -24t35.5 -28.5t26 -37.5t10 -51q0 -75 -49 -109.5t-130 -34.5q-49 0 -80.5 7t-47.5 12v79q3 -2 15.5 -6.5t29.5 -9t36.5 -8.5t38.5 -4q16 0 33 2.5t31.5 9.5t23.5 19t9 30q0 13 -7.5 24t-18.5 20t-24.5 17t-25.5 16l-46 28q-16 10 -33 21.5
t-30.5 26.5t-22.5 35t-9 46q0 32 12.5 57t35 42t53.5 25.5t68 8.5q36 0 63.5 -7t44.5 -10v-81q-5 2 -15.5 7t-24.5 9.5t-32 8t-37 3.5q-15 0 -29 -4t-25 -10.5t-17.5 -16t-6.5 -20.5q0 -12 6.5 -22t16.5 -18.5t22 -15.5l24 -14zM34 708h81l71 -84l69 84h81l-96 -149h-108z
" />
    <glyph glyph-name="yacute" unicode="&#xfd;" horiz-adv-x="444" 
d="M184 -3l-181 479h100l125 -344h2l112 344h100l-237 -681h-88zM231 726h121l-84 -167h-83z" />
    <glyph glyph-name="zcaron" unicode="&#x17e;" horiz-adv-x="389" 
d="M19 70l231 336h-216v70h325v-68l-231 -338h240v-70h-349v70zM44 708h81l71 -84l69 84h81l-96 -149h-108z" />
  </font>
</defs>
</svg>
