<?xml version="1.0" standalone="no"?>
<!DOCTYPE svg PUBLIC "-//W3C//DTD SVG 1.1//EN" "http://www.w3.org/Graphics/SVG/1.1/DTD/svg11.dtd" >
<svg>
<metadata>
Created by FontForge 20110222 at Wed May 29 04:15:03 2013
 By Orthosie Webhosting
Copyright (c) 1990 Adobe Systems Incorporated.  All Rights Reserved.Rotis is a trademark of Agfa Corporation.
</metadata>
<defs>
<font id="RotisSemiSans-Light" horiz-adv-x="482" >
  <font-face 
    font-family="RotisSemiSans"
    font-weight="300"
    font-stretch="normal"
    units-per-em="1000"
    panose-1="2 0 5 6 5 0 0 2 0 3"
    ascent="800"
    descent="-200"
    x-height="476"
    cap-height="690"
    bbox="-35 -235 1089 911"
    underline-thickness="50"
    underline-position="-50"
    unicode-range="U+0020-FB02"
  />
<missing-glyph horiz-adv-x="241" 
 />
    <glyph glyph-name="fi" unicode="fi" horiz-adv-x="519" 
d="M371 690h70v-81h-70v81zM378 476h55v-476h-55v476zM118 435h-81v41h81v70q0 25 5.5 51t21.5 47.5t45.5 35t78.5 13.5q23 0 37.5 -3t25.5 -5v-49q-16 5 -31 11.5t-35 6.5q-29 0 -47 -8t-28.5 -22.5t-14 -35t-3.5 -45.5v-67h133v-41h-133v-435h-55v435z" />
    <glyph glyph-name="fl" unicode="fl" horiz-adv-x="522" 
d="M118 435h-81v41h81v70q0 25 5.5 51t21.5 47.5t45.5 35t78.5 13.5q23 0 37.5 -3t25.5 -5v-49q-16 5 -31 11.5t-35 6.5q-29 0 -47 -8t-28.5 -22.5t-14 -35t-3.5 -45.5v-67h133v-41h-133v-435h-55v435zM383 690h55v-690h-55v690z" />
    <glyph glyph-name=".notdef" horiz-adv-x="241" 
 />
    <glyph glyph-name=".null" horiz-adv-x="0" 
 />
    <glyph glyph-name="nonmarkingreturn" horiz-adv-x="241" 
 />
    <glyph glyph-name="space" unicode=" " horiz-adv-x="241" 
 />
    <glyph glyph-name="space" unicode="&#xa0;" horiz-adv-x="241" 
 />
    <glyph glyph-name="dollar" unicode="$" horiz-adv-x="519" 
d="M276 28q16 0 36 8.5t38 26t30 43t12 59.5q0 36 -12.5 60t-30.5 40t-38 25.5t-35 15.5v-278zM234 628q-18 -2 -36.5 -12t-33 -27t-23.5 -40.5t-9 -53.5q0 -33 10.5 -55t26.5 -36.5t33.5 -23t31.5 -13.5v261zM234 -11q-44 2 -75 14.5t-52 31.5t-32.5 44t-15.5 52h72
q2 -17 8 -33.5t17.5 -30t30.5 -24t47 -15.5v292q-26 6 -55 15.5t-54 27.5t-41.5 48.5t-16.5 79.5q0 47 16.5 79.5t41 53t54 30.5t55.5 13v72h42v-72q41 -2 73 -15t54.5 -33t34 -43.5t11.5 -45.5h-72q0 21 -9 38.5t-23 30.5t-32.5 20.5t-36.5 8.5v-273q28 -9 60 -21t59.5 -32
t46 -52t18.5 -82q0 -47 -16 -81t-42.5 -55.5t-59.5 -32t-66 -10.5v-80h-42v80z" />
    <glyph glyph-name="percent" unicode="%" horiz-adv-x="779" 
d="M464 634h47l-196 -634h-48zM523 207q0 -30 2.5 -61t11.5 -57t26 -42.5t46 -16.5q30 0 48.5 16.5t28 42.5t12.5 57t3 61q0 31 -3 64t-12.5 60.5t-28 45t-48.5 17.5q-29 0 -46 -17.5t-26 -45t-11.5 -60.5t-2.5 -64zM612 -11q-50 0 -78.5 20.5t-42.5 52.5t-18 70.5t-4 73.5
q0 37 4 77.5t18 74t42.5 55.5t78.5 22q49 0 78 -22t43 -55.5t18 -74t4 -77.5q0 -35 -4 -73.5t-18 -70.5t-43 -52.5t-78 -20.5zM78 417q0 -30 2.5 -61t11.5 -57t26 -42.5t46 -16.5q30 0 48.5 16.5t28 42.5t12.5 57t3 61q0 31 -3 64t-12.5 60.5t-28 45t-48.5 17.5
q-29 0 -46 -17.5t-26 -45t-11.5 -60.5t-2.5 -64zM167 199q-50 0 -78.5 20.5t-42.5 52.5t-18 70.5t-4 73.5q0 37 4 77.5t18 74t42.5 55.5t78.5 22q49 0 78 -22t43 -55.5t18 -74t4 -77.5q0 -35 -4 -73.5t-18 -70.5t-43 -52.5t-78 -20.5z" />
    <glyph glyph-name="ampersand" unicode="&#x26;" horiz-adv-x="612" 
d="M346 0q-10 -2 -17.5 -4t-17.5 -3.5t-24.5 -2.5t-36.5 -1q-30 0 -65 8.5t-65 30t-49.5 59.5t-19.5 97q0 41 9.5 70.5t24.5 49.5t34 33t39 22q-14 4 -32 13.5t-34 26t-26.5 41t-10.5 58.5q0 46 17.5 78t45.5 52t62 29t67 9q26 0 54 -4t45 -9v-45q-9 3 -36 11t-61 8
t-58.5 -11.5t-41 -30t-24.5 -42t-8 -46.5q0 -33 13 -56t32.5 -37.5t42.5 -20.5t42 -6h192v157l55 38v-195h110v-41h-110v-202q0 -20 2 -39t9.5 -34t22.5 -24t41 -9q14 0 20.5 2t14.5 4v-37q-11 -4 -21.5 -6t-25.5 -2q-44 0 -67.5 13t-35 34t-13.5 48t-2 55v197h-167
q-25 0 -52 -4.5t-49.5 -19.5t-37 -44t-14.5 -77q0 -42 11.5 -73t31.5 -51t47 -29.5t58 -9.5q29 0 50 6.5t29 10.5v-45z" />
    <glyph glyph-name="quoteright" unicode="&#x2019;" horiz-adv-x="185" 
d="M63 690h72l-30 -206h-53z" />
    <glyph glyph-name="parenleft" unicode="(" horiz-adv-x="260" 
d="M228 -143q-38 8 -64.5 33.5t-43.5 62t-26 81t-13.5 90.5t-5 90t-0.5 79q0 75 2.5 153.5t16.5 145t45.5 114.5t88.5 62v-39q-35 -21 -53.5 -61.5t-27 -96.5t-10 -126t-1.5 -150q0 -68 1.5 -131t10 -115.5t27 -92t53.5 -60.5v-39z" />
    <glyph glyph-name="parenright" unicode=")" horiz-adv-x="260" 
d="M32 -104q34 21 53 61.5t27.5 96.5t10 126t1.5 150q0 68 -1.5 131t-10 115.5t-27.5 92t-53 60.5v39q38 -8 64.5 -34t43.5 -62.5t26 -80.5t13.5 -90t5 -90t0.5 -79q0 -75 -2.5 -153.5t-16.5 -145t-45.5 -114.5t-88.5 -62v39z" />
    <glyph glyph-name="asterisk" unicode="*" horiz-adv-x="315" 
d="M121 542h-110v42h110l-55 95l37 22l56 -96l54 96l38 -22l-56 -95h109v-42h-109l56 -94l-38 -22l-54 93l-56 -93l-37 22z" />
    <glyph glyph-name="plus" unicode="+" horiz-adv-x="575" 
d="M260 212h-200v50h200v200h55v-200h200v-50h-200v-212h-55v212z" />
    <glyph glyph-name="comma" unicode="," horiz-adv-x="185" 
d="M63 83h72l-30 -216h-53z" />
    <glyph glyph-name="hyphen" unicode="-" horiz-adv-x="389" 
d="M57 271h275v-56h-275v56z" />
    <glyph glyph-name="hyphen" unicode="&#xad;" horiz-adv-x="389" 
d="M57 271h275v-56h-275v56z" />
    <glyph glyph-name="period" unicode="." horiz-adv-x="185" 
d="M51 83h83v-83h-83v83z" />
    <glyph glyph-name="slash" unicode="/" horiz-adv-x="278" 
d="M197 761h57l-174 -897h-56z" />
    <glyph glyph-name="zero" unicode="0" 
d="M102 331q0 -41 4 -93t18.5 -97.5t42.5 -76.5t76 -31q46 0 73.5 28t41.5 69.5t18 89.5t4 88q0 46 -4.5 98t-19.5 95t-43.5 71.5t-75.5 28.5q-46 0 -72.5 -30t-40.5 -72.5t-18 -88.5t-4 -79zM246 -11q-51 0 -86.5 17t-59 44.5t-37 63t-20 72.5t-8 73.5t-1.5 65.5
q0 67 9.5 125.5t33 102t62.5 68t99 24.5q66 0 107.5 -31t64 -79.5t30.5 -109t8 -119.5q0 -45 -5.5 -100t-26 -103.5t-61 -81t-109.5 -32.5z" />
    <glyph glyph-name="one" unicode="1" 
d="M246 568l-113 -81v62l124 85h51v-634h-62v568z" />
    <glyph glyph-name="two" unicode="2" 
d="M62 51q24 23 54 54t61 67t60.5 76t53 81t37.5 81.5t14 77.5q0 50 -29.5 81.5t-78.5 31.5q-33 0 -52 -12.5t-29.5 -29.5t-14 -35t-5.5 -29h-73q2 20 10 46t27.5 49t53.5 39t87 16q76 0 122.5 -44.5t46.5 -127.5q0 -56 -26 -111.5t-65.5 -108.5t-87.5 -104t-92 -98h284v-51
h-358v51z" />
    <glyph glyph-name="three" unicode="3" 
d="M52 511q0 22 10.5 45.5t31.5 43t53 32.5t74 13q78 0 127 -42t49 -126q0 -39 -11.5 -65.5t-28.5 -43t-36 -25t-34 -11.5v-2q23 -4 45 -15t39 -30.5t27 -48t10 -67.5q0 -48 -14 -82t-38.5 -55.5t-58 -32t-72.5 -10.5q-54 0 -88.5 14.5t-54.5 35.5t-28 45t-10 43h74
q0 -11 4 -27t15 -31t31 -25.5t54 -10.5q54 0 86 34t32 103q0 38 -10.5 64.5t-26.5 43t-35 23.5t-36 7h-29v44h19q45 0 76 30.5t31 90.5q0 23 -6 46t-19.5 41t-34 29.5t-48.5 11.5q-29 0 -46.5 -9.5t-28 -23.5t-15 -29.5t-6.5 -27.5h-73z" />
    <glyph glyph-name="four" unicode="4" 
d="M109 239h190v306h-2zM299 188h-251v49l246 397h60v-395h112v-51h-112v-188h-55v188z" />
    <glyph glyph-name="five" unicode="5" 
d="M151 348q3 2 11 7t21.5 10.5t32 10t42.5 4.5q43 0 76.5 -15.5t56.5 -42t35.5 -62t12.5 -75.5q0 -50 -15 -86.5t-41.5 -61t-63 -36.5t-79.5 -12q-51 0 -83.5 13.5t-51.5 34t-28 44t-12 44.5h74q1 -14 6.5 -30t17.5 -29.5t31 -23t48 -9.5q68 0 98.5 42.5t30.5 109.5
q0 31 -7.5 58.5t-22.5 48t-38 32.5t-54 12q-38 0 -64 -17.5t-34 -37.5h-58l17 353h294v-46h-239z" />
    <glyph glyph-name="six" unicode="6" 
d="M140 193q0 -26 7 -54t22.5 -51.5t39.5 -39t57 -15.5q28 0 50.5 12t38 33t23.5 49t8 60q0 29 -8.5 56t-24 48t-38 33.5t-50.5 12.5q-27 0 -49.5 -12.5t-39.5 -32.5t-26.5 -46t-9.5 -53zM366 510q0 40 -26.5 65.5t-63.5 25.5t-62 -17t-41.5 -44t-25 -60.5t-13 -67.5
t-5 -64.5t-0.5 -50.5h2q4 8 14 22t28 28t44.5 24t64.5 10q75 0 123.5 -48.5t48.5 -144.5q0 -51 -14.5 -88.5t-40 -62t-60 -36.5t-74.5 -12q-47 0 -80 14t-55.5 38.5t-35.5 56.5t-19.5 68t-8.5 73.5t-2 72.5q0 55 6.5 114t29 107.5t65 80t113.5 31.5q43 0 73.5 -14t49.5 -35
t28 -44.5t10 -41.5h-73z" />
    <glyph glyph-name="seven" unicode="7" 
d="M354 583h-287v51h355v-51l-240 -583h-71z" />
    <glyph glyph-name="eight" unicode="8" 
d="M120 168q0 -26 8 -50.5t23.5 -43t39 -30t54.5 -11.5q56 0 86.5 34t30.5 96q0 29 -8 54.5t-23 44.5t-37.5 30t-51.5 11q-30 0 -53 -12t-38.5 -31.5t-23 -43.5t-7.5 -48zM134 474q0 -22 6 -44t19 -39.5t32.5 -28.5t46.5 -11q29 0 49.5 10t34 27.5t20 40t6.5 47.5
q0 52 -28.5 88.5t-78.5 36.5q-48 0 -77.5 -36.5t-29.5 -90.5zM245 -11q-42 0 -77.5 12t-61 35t-40 57t-14.5 78q0 36 11 63t29 46.5t40.5 31t45.5 16.5v2q-21 4 -41 14.5t-35.5 28t-25.5 43.5t-10 63q0 35 12 65t35 52.5t56.5 35.5t76.5 13q76 0 123 -44t47 -121
q0 -37 -11 -64t-27.5 -45.5t-36.5 -28.5t-37 -13v-2q22 -5 44.5 -15.5t40.5 -29.5t29.5 -48t11.5 -71q0 -43 -14.5 -75.5t-39.5 -54.5t-59 -33t-72 -11z" />
    <glyph glyph-name="nine" unicode="9" 
d="M106 453q0 -67 31.5 -110t85.5 -43q28 0 52 12t41.5 31t27.5 43t10 48q0 23 -7 52t-22.5 54.5t-40.5 43t-61 17.5q-30 0 -52 -12t-36.5 -32.5t-21.5 -47.5t-7 -56zM120 127q0 -17 5.5 -34t17.5 -30.5t30.5 -21.5t44.5 -8q35 0 59 18t40 46t25 63t13 69t5 64t1 48h-2
q-2 -6 -12 -20.5t-28 -28.5t-45 -25t-63 -11t-67.5 12t-55 36t-37 60t-13.5 83q0 43 12.5 79.5t36.5 63t59 41t80 14.5q67 0 106.5 -30t60.5 -76t27 -101.5t6 -105.5q0 -62 -7 -123.5t-29.5 -110t-63.5 -79t-109 -30.5q-50 0 -82.5 16.5t-52 39t-27.5 45.5t-8 37h73z" />
    <glyph glyph-name="colon" unicode=":" horiz-adv-x="241" 
d="M107 83h83v-83h-83v83zM107 476h83v-83h-83v83z" />
    <glyph glyph-name="semicolon" unicode=";" horiz-adv-x="241" 
d="M108 476h83v-83h-83v83zM115 83h72l-30 -216h-53z" />
    <glyph glyph-name="semicolon" unicode="&#x37e;" horiz-adv-x="241" 
d="M108 476h83v-83h-83v83zM115 83h72l-30 -216h-53z" />
    <glyph glyph-name="less" unicode="&#x3c;" horiz-adv-x="575" 
d="M60 206v50l455 206v-50l-398 -181l398 -181v-50z" />
    <glyph glyph-name="equal" unicode="=" horiz-adv-x="575" 
d="M60 331h455v-50h-455v50zM60 193h455v-50h-455v50z" />
    <glyph glyph-name="greater" unicode="&#x3e;" horiz-adv-x="575" 
d="M60 50l398 181l-398 181v50l455 -206v-50l-455 -206v50z" />
    <glyph glyph-name="question" unicode="?" horiz-adv-x="389" 
d="M202 0h-80v80h80v-80zM135 179v73q0 30 6 48.5t18 35t30 36t43 51.5q14 18 26.5 33t22.5 29.5t15.5 31.5t5.5 40q0 45 -30.5 70.5t-75.5 25.5q-19 0 -38 -4.5t-36.5 -11.5t-31 -15t-22.5 -14v69q24 9 55 16.5t70 7.5q31 0 63 -7.5t57 -25t41 -45.5t16 -69
q0 -33 -14 -63.5t-34 -57.5t-43.5 -52t-41.5 -47q-26 -33 -37 -57.5t-11 -47.5v-50h-54z" />
    <glyph glyph-name="at" unicode="@" horiz-adv-x="1000" 
d="M369 114q0 -36 19.5 -51.5t49.5 -15.5t56 20.5t47.5 52.5t38.5 70.5t28.5 74.5t17.5 65.5t6 42.5q0 23 -16 43.5t-46 20.5q-24 0 -48.5 -17.5t-47 -45.5t-41.5 -63t-33.5 -71t-22.5 -69t-8 -57zM831 -9q-6 -8 -30.5 -28t-66 -41.5t-98.5 -38t-128 -16.5
q-89 0 -164.5 24.5t-130.5 68t-86.5 104.5t-31.5 134q0 91 36.5 172t98 142t143 96.5t172.5 35.5q77 0 143 -24t114 -67.5t75.5 -103t27.5 -129.5q0 -66 -24 -124.5t-64 -102t-90.5 -68.5t-102.5 -25q-26 0 -40 7.5t-20.5 18.5t-8.5 23t-3 22q-6 -8 -17 -19t-27 -21
t-37.5 -17.5t-48.5 -7.5t-51.5 9t-42.5 27t-28.5 45t-10.5 62t10 73t28 74.5t42 69t53 57t61 39t65 14.5q31 0 52 -9t34 -21t19.5 -24.5t10.5 -19.5l22 54h87l-84 -207q-8 -21 -18.5 -47t-20 -50.5t-16 -44t-6.5 -28.5q0 -12 9.5 -19.5t20.5 -7.5q30 0 65 20t65.5 56
t50.5 85t20 107q0 63 -24.5 113.5t-65.5 86t-94.5 54.5t-111.5 19q-89 0 -162.5 -36t-126 -93t-81.5 -127t-29 -138q0 -62 24.5 -114.5t69.5 -90.5t109.5 -60t144.5 -22q66 0 117.5 14.5t88.5 32.5t59 34.5t27 20.5z" />
    <glyph glyph-name="A" unicode="A" horiz-adv-x="538" 
d="M149 275h227l-112 351h-2zM233 690h71l224 -690h-62l-75 229h-257l-75 -229h-50z" />
    <glyph glyph-name="B" unicode="B" horiz-adv-x="519" 
d="M150 48h90q13 0 39.5 3t53.5 17t47 42.5t20 79.5q0 43 -16 71.5t-40 45.5t-51 23.5t-48 6.5h-95v-289zM150 383h56q31 0 61 6.5t53 22t37.5 42t14.5 66.5q0 46 -17.5 71t-40 37t-44.5 14t-30 2h-90v-261zM88 690h143q27 0 62.5 -4.5t67.5 -22t54 -51.5t22 -92
q0 -36 -11.5 -64t-29.5 -47.5t-39 -30.5t-40 -13v-2q23 -1 49.5 -12.5t49 -34t37.5 -54.5t15 -73q0 -48 -15.5 -83.5t-44 -59t-67.5 -35t-86 -11.5h-167v690z" />
    <glyph glyph-name="C" unicode="C" horiz-adv-x="519" 
d="M477 35q-22 -15 -61.5 -30.5t-101.5 -15.5q-69 0 -119 28.5t-82 78.5t-47 118t-15 148q0 29 3.5 65.5t13 74.5t26.5 73.5t44.5 63.5t66 45t90.5 17q49 0 88 -16t66 -43t41 -63t14 -76h-76q0 26 -6.5 53t-22.5 49t-41.5 36t-64.5 14q-58 0 -92.5 -31t-52.5 -75.5
t-23.5 -93.5t-5.5 -85q0 -67 11 -128t35.5 -107t63 -73t93.5 -27q28 0 51 6t42 15.5t34 21t28 22.5v-65z" />
    <glyph glyph-name="D" unicode="D" horiz-adv-x="574" 
d="M150 48h51q66 0 113.5 14.5t79 48t46.5 89t15 137.5q0 101 -19.5 161.5t-54 93t-81 42.5t-99.5 10h-51v-596zM88 690h118q65 0 122.5 -13t101 -50t68.5 -105t25 -177q0 -70 -12 -132.5t-46 -110t-93.5 -75t-153.5 -27.5h-130v690z" />
    <glyph glyph-name="E" unicode="E" horiz-adv-x="445" 
d="M88 690h306v-46h-244v-260h232v-46h-232v-290h253v-48h-315v690z" />
    <glyph glyph-name="F" unicode="F" horiz-adv-x="389" 
d="M88 690h299v-46h-237v-260h225v-46h-225v-338h-62v690z" />
    <glyph glyph-name="G" unicode="G" horiz-adv-x="593" 
d="M518 56q-9 -10 -26 -21.5t-42.5 -21.5t-59.5 -17t-77 -7q-79 0 -129.5 33t-80 86t-41 119.5t-11.5 133.5q0 62 12 123t41 109t77.5 78t120.5 30q67 0 111 -21.5t70 -52t37 -65t11 -60.5h-76q0 31 -9 59t-27.5 49t-47.5 33t-68 12q-52 0 -87 -25t-56.5 -66t-31 -94.5
t-9.5 -111.5q0 -56 9.5 -113.5t32.5 -104t62 -76t99 -29.5q53 0 85.5 17t48.5 33v252h-172v46h234v-327z" />
    <glyph glyph-name="H" unicode="H" horiz-adv-x="593" 
d="M88 690h62v-310h293v310h62v-690h-62v334h-293v-334h-62v690z" />
    <glyph glyph-name="I" unicode="I" horiz-adv-x="241" 
d="M89 690h62v-690h-62v690z" />
    <glyph glyph-name="J" unicode="J" horiz-adv-x="334" 
d="M254 142q0 -153 -172 -153q-29 0 -48.5 3.5t-33.5 6.5v66q14 -5 37.5 -14t52.5 -9q58 0 80 30.5t22 81.5v536h62v-548z" />
    <glyph glyph-name="K" unicode="K" horiz-adv-x="501" 
d="M88 690h62v-313h2l250 313h66l-264 -325l297 -365h-75l-274 339h-2v-339h-62v690z" />
    <glyph glyph-name="L" unicode="L" horiz-adv-x="389" 
d="M88 690h62v-642h243v-48h-305v690z" />
    <glyph glyph-name="M" unicode="M" horiz-adv-x="760" 
d="M576 690h96v-690h-62v637h-2l-203 -637h-60l-203 637h-2v-637h-52v690h92l196 -615h2z" />
    <glyph glyph-name="N" unicode="N" horiz-adv-x="612" 
d="M88 690h77l300 -619h2v619h57v-690h-82l-295 614h-2v-614h-57v690z" />
    <glyph glyph-name="O" unicode="O" horiz-adv-x="575" 
d="M119 342q0 -18 1.5 -48t7.5 -64t17 -69t30 -63t47.5 -45.5t68.5 -17.5q41 0 69 17.5t46.5 45.5t28 63t14 69t5.5 64t1 48q0 57 -8.5 113t-28 100.5t-52 72t-80.5 27.5q-51 0 -83 -27.5t-51 -72t-26 -100.5t-7 -113zM289 -11q-74 0 -120.5 32.5t-72.5 84.5t-35.5 115
t-9.5 125q0 69 11.5 133t39 113.5t73.5 79t114 29.5q66 0 111 -29.5t72.5 -79t39 -113.5t11.5 -133q0 -62 -8.5 -125t-33.5 -115t-71 -84.5t-121 -32.5z" />
    <glyph glyph-name="P" unicode="P" 
d="M150 361h52q25 0 58 2t62 15t49 41t20 80t-20 81.5t-49 43.5t-62 17t-58 3h-52v-283zM88 690h137q41 0 82.5 -7t75.5 -27.5t55 -57.5t21 -97q0 -61 -21 -97.5t-55 -56t-75.5 -26t-82.5 -6.5h-75v-315h-62v690z" />
    <glyph glyph-name="Q" unicode="Q" horiz-adv-x="575" 
d="M119 342q0 -12 1.5 -38t7.5 -59t17 -68t30 -64.5t47.5 -48t68.5 -18.5q41 0 69 17t46.5 44t28 60.5t14 66.5t5.5 61.5t1 46.5q0 57 -8.5 113t-28 100.5t-52 72t-80.5 27.5q-51 0 -83 -27.5t-51 -72t-26 -100.5t-7 -113zM289 0q-71 0 -117 31.5t-73 81.5t-37.5 111.5
t-10.5 121.5q0 69 11.5 133t39 113.5t73.5 79t114 29.5q66 0 111 -29.5t72.5 -79t39 -113.5t11.5 -133q0 -122 -26 -195t-88 -111l2 -2q18 1 40 3.5t44 6t41.5 8t31.5 9.5v-65h-279z" />
    <glyph glyph-name="R" unicode="R" horiz-adv-x="538" 
d="M150 363h39q34 0 69 6t63.5 21.5t47 43t18.5 71.5q0 52 -20 80.5t-47.5 41.5t-55.5 15t-43 2h-71v-281zM88 690h138q40 0 81 -7.5t74 -27.5t53.5 -55.5t20.5 -91.5q0 -47 -17.5 -78t-43 -50t-53 -28t-46.5 -11v-2q36 -5 59 -16t38 -29.5t23.5 -45t15.5 -62.5l38 -186h-64
l-36 177q-7 33 -16.5 59t-27.5 44t-48 27.5t-78 9.5h-49v-317h-62v690z" />
    <glyph glyph-name="S" unicode="S" horiz-adv-x="463" 
d="M385 616q-25 11 -65 25t-87 14q-62 0 -97.5 -31.5t-35.5 -80.5q0 -38 15.5 -61.5t43 -42.5t66.5 -37.5t86 -46.5q25 -15 46 -30.5t36 -35.5t23.5 -46t8.5 -62q0 -52 -19.5 -88.5t-51.5 -59.5t-73.5 -33.5t-84.5 -10.5q-27 0 -52.5 2t-45.5 4.5t-34.5 5t-20.5 4.5v71
q9 -5 25.5 -11.5t37 -12.5t44.5 -10.5t50 -4.5q32 0 60.5 8t50 24.5t34 42.5t12.5 62q0 33 -12 55.5t-32 40t-45 30.5t-51 27q-35 19 -67 36.5t-57 40t-39.5 52.5t-14.5 74q0 78 55 124.5t154 46.5q45 0 79.5 -5.5t57.5 -10.5v-69z" />
    <glyph glyph-name="T" unicode="T" horiz-adv-x="389" 
d="M164 644h-163v46h388v-46h-163v-644h-62v644z" />
    <glyph glyph-name="U" unicode="U" horiz-adv-x="593" 
d="M511 229q0 -45 -10.5 -88t-36 -77t-67 -54.5t-103.5 -20.5t-102.5 20.5t-64.5 54.5t-34 77t-10 88v461h62v-442q0 -23 2.5 -59t16.5 -70.5t45.5 -59t88.5 -24.5t87.5 24.5t44.5 59t16.5 70.5t2.5 59v442h62v-461z" />
    <glyph glyph-name="V" unicode="V" horiz-adv-x="500" 
d="M-17 690h64l210 -625h2l200 625h59l-226 -690h-80z" />
    <glyph glyph-name="W" unicode="W" horiz-adv-x="797" 
d="M41 690h62l103 -616h2l156 616h75l153 -616h2l106 616h56l-119 -690h-84l-154 622h-2l-153 -622h-85z" />
    <glyph glyph-name="X" unicode="X" horiz-adv-x="501" 
d="M215 358l-197 332h74l161 -272l159 272h64l-193 -323l218 -367h-74l-182 306l-183 -306h-62z" />
    <glyph glyph-name="Y" unicode="Y" 
d="M207 317l-207 373h69l172 -314l176 314h65l-213 -373v-317h-62v317z" />
    <glyph glyph-name="Z" unicode="Z" 
d="M28 48l338 596h-321v46h395v-46l-340 -596h354v-48h-426v48z" />
    <glyph glyph-name="bracketleft" unicode="[" horiz-adv-x="260" 
d="M91 761h154v-50h-96v-797h96v-50h-154v897z" />
    <glyph glyph-name="backslash" unicode="\" horiz-adv-x="278" 
d="M24 761h57l173 -897h-56z" />
    <glyph glyph-name="bracketright" unicode="]" horiz-adv-x="260" 
d="M14 -86h96v797h-96v50h154v-897h-154v50z" />
    <glyph glyph-name="asciicircum" unicode="^" horiz-adv-x="334" 
d="M138 690h59l84 -153h-53l-59 112l-64 -112h-53z" />
    <glyph glyph-name="underscore" unicode="_" horiz-adv-x="500" 
d="M0 -75h500v-50h-500v50z" />
    <glyph glyph-name="quoteleft" unicode="&#x2018;" horiz-adv-x="185" 
d="M81 690h53l-11 -206h-72z" />
    <glyph glyph-name="a" unicode="a" horiz-adv-x="445" 
d="M307 226q-17 0 -51.5 -2t-68.5 -12t-59.5 -32.5t-25.5 -62.5q0 -36 24 -57t59 -21q34 0 57.5 15.5t37.5 39.5t20.5 52t6.5 53v27zM307 74h-2q-4 -9 -14.5 -23t-28 -28t-41 -24t-53.5 -10q-29 0 -52.5 10t-40 27t-25.5 38.5t-9 45.5q0 34 15.5 62.5t48 49t83 32
t119.5 11.5v32q0 28 -1.5 55t-10.5 48.5t-29 34.5t-56 13q-29 0 -46 -8.5t-26.5 -21t-12.5 -28t-4 -30.5h-69q3 19 10.5 41.5t25 41.5t48.5 31.5t80 12.5q48 0 77 -14.5t44.5 -37.5t20 -52.5t4.5 -59.5v-323h-55v74z" />
    <glyph glyph-name="b" unicode="b" horiz-adv-x="463" 
d="M127 219q0 -32 5 -66t17 -62t33 -45.5t53 -17.5q33 0 56 16t38 43.5t21.5 63t6.5 74.5q0 38 -5 77.5t-17.5 72t-34 53t-54.5 20.5q-26 0 -48 -18.5t-38 -50t-24.5 -73t-8.5 -87.5zM123 381h2q10 22 22 41t28 33.5t35.5 23t45.5 8.5q37 0 67 -19t51 -52.5t32.5 -80.5
t11.5 -102q0 -54 -12 -99t-35.5 -77.5t-57.5 -50t-79 -17.5q-42 0 -70 12.5t-46.5 32.5t-28.5 45.5t-14.5 51t-5.5 49t-1 40.5v470h55v-309z" />
    <glyph glyph-name="c" unicode="c" horiz-adv-x="408" 
d="M360 0q-21 -6 -43 -8.5t-44 -2.5q-72 0 -116.5 23.5t-69.5 61t-33.5 84t-8.5 91.5q0 62 13 107t37 74t57 43t74 14q49 0 79 -17t46.5 -41t21.5 -50t5 -44h-69q0 15 -1.5 34.5t-9.5 37t-26.5 29.5t-51.5 12q-35 0 -57 -17t-34.5 -44t-17.5 -60.5t-5 -66.5q0 -50 12 -92.5
t35.5 -73t57 -47.5t77.5 -17q18 0 36 2.5t36 8.5v-41z" />
    <glyph glyph-name="d" unicode="d" 
d="M107 231q0 -35 4.5 -71.5t16 -65.5t30.5 -47.5t49 -18.5t55.5 17t43.5 46.5t28 68.5t10 83q0 22 -7.5 56.5t-23.5 67.5t-40 57t-57 24q-30 0 -51 -18t-33.5 -48t-18.5 -69.5t-6 -81.5zM344 97h-2q-3 -12 -12.5 -30.5t-26.5 -36t-41.5 -29.5t-57.5 -12q-48 0 -78.5 22
t-48.5 57t-24.5 79t-6.5 88q0 53 10 99t30 80t51.5 53.5t75.5 19.5q34 0 57 -12.5t38 -29.5t23 -35t11 -29h2v309h55v-690h-55v97z" />
    <glyph glyph-name="e" unicode="e" horiz-adv-x="431" 
d="M327 336q0 14 -3.5 33t-14.5 36.5t-31.5 30t-55.5 12.5t-56 -12.5t-33 -30.5t-16.5 -37t-5.5 -32h216zM379 0q-23 -6 -48.5 -8.5t-51.5 -2.5q-117 0 -175 66.5t-58 194.5q0 52 10 95.5t32 75t57 49t85 17.5q30 0 58.5 -9.5t50.5 -31.5t35.5 -58.5t13.5 -90.5h-281
q0 -86 20 -138.5t49 -81t61 -38t56 -9.5q22 0 44.5 2.5t41.5 9.5v-42z" />
    <glyph glyph-name="f" unicode="f" horiz-adv-x="313" 
d="M118 435h-81v41h81v70q0 25 5.5 51t21.5 47.5t45.5 35t78.5 13.5q23 0 37.5 -3t25.5 -5v-49q-16 5 -31 11.5t-35 6.5q-29 0 -47 -8t-28.5 -22.5t-14 -35t-3.5 -45.5v-67h133v-41h-133v-435h-55v435z" />
    <glyph glyph-name="g" unicode="g" 
d="M107 247q0 -38 6 -75t19.5 -66.5t34 -48t50.5 -18.5q26 0 49 16.5t40.5 45.5t27.5 67.5t10 82.5q0 30 -8.5 64.5t-24.5 64t-39.5 49t-54.5 19.5q-30 0 -51 -18t-34 -47t-19 -64.5t-6 -71.5zM399 26q0 -116 -48.5 -171.5t-158.5 -55.5q-34 0 -61.5 4t-53.5 14v68
q32 -16 61.5 -27.5t67.5 -11.5q49 0 77 19t41.5 48.5t16.5 64.5t3 67v62h-2q-3 -12 -12 -30t-24.5 -35.5t-39 -29.5t-54.5 -12q-43 0 -74.5 20t-51.5 54t-30 79t-10 95q0 46 10 89.5t30 76.5t51.5 53t75.5 20q34 0 57.5 -12.5t38.5 -29.5t22.5 -35t10.5 -29h2v95h55v-450z
" />
    <glyph glyph-name="h" unicode="h" horiz-adv-x="501" 
d="M83 690h55v-344h2q4 13 16 36.5t31.5 47t47 40.5t63.5 17q34 0 57 -11t37 -31t20 -47.5t6 -61.5v-336h-55v318q0 20 -2 41t-9.5 38.5t-22.5 28.5t-41 11q-25 0 -45.5 -12.5t-37.5 -32t-29.5 -44t-21 -48.5t-12.5 -45t-4 -33v-222h-55v690z" />
    <glyph glyph-name="i" unicode="i" horiz-adv-x="222" 
d="M76 690h70v-81h-70v81zM84 476h55v-476h-55v476z" />
    <glyph glyph-name="j" unicode="j" horiz-adv-x="222" 
d="M82 690h70v-81h-70v81zM-35 -147q5 -1 13 -2t16 -1q34 0 53 11.5t28.5 27.5t11.5 33.5t2 29.5v524h55v-507q0 -36 -6 -61t-17 -42.5t-25.5 -28t-31.5 -18.5q-31 -11 -59.5 -13t-39.5 -2v49z" />
    <glyph glyph-name="k" unicode="k" horiz-adv-x="408" 
d="M83 690h55v-431h2l175 217h62l-178 -215l198 -261h-66l-191 253h-2v-253h-55v690z" />
    <glyph glyph-name="l" unicode="l" horiz-adv-x="222" 
d="M84 690h55v-690h-55v690z" />
    <glyph glyph-name="m" unicode="m" horiz-adv-x="742" 
d="M82 476h55v-119h2q8 21 21.5 44t32.5 42t43 31.5t52 12.5q55 0 82.5 -37t27.5 -92h2q4 12 15.5 33.5t30 42.5t44 37t58.5 16q31 0 52.5 -12t34.5 -30.5t18.5 -41t5.5 -44.5v-359h-55v321q0 17 -1 37t-7.5 37.5t-21 29.5t-40.5 12q-33 0 -58.5 -23t-43 -56.5t-26 -71.5
t-8.5 -67v-219h-55v326q0 13 -1 32t-7.5 36.5t-20.5 30t-39 12.5q-33 0 -58.5 -23t-43 -56.5t-27 -71.5t-9.5 -67v-219h-55v476z" />
    <glyph glyph-name="n" unicode="n" horiz-adv-x="501" 
d="M138 346h2q4 13 15.5 36.5t31 47t47 40.5t64.5 17q41 0 65 -15.5t36 -39t15.5 -50.5t3.5 -50v-332h-55v318q0 22 -2 43t-9.5 38t-22.5 27.5t-41 10.5q-37 0 -65 -27t-47 -63t-28.5 -73.5t-9.5 -58.5v-215h-55v476h55v-130z" />
    <glyph glyph-name="o" unicode="o" 
d="M107 250q0 -45 6.5 -85.5t22.5 -70.5t41.5 -48t63.5 -18q39 0 65 16.5t41.5 44.5t22 64.5t6.5 75.5q0 43 -6.5 82.5t-22.5 70t-42.5 48.5t-66.5 18q-39 0 -64 -18t-40 -46.5t-21 -64t-6 -69.5zM242 -11q-51 0 -88 18.5t-61 52t-35.5 80t-11.5 101.5q0 53 12 98t36 78
t60 51.5t84 18.5q97 0 148 -67.5t51 -187.5q0 -53 -12 -97.5t-36 -77t-60.5 -50.5t-86.5 -18z" />
    <glyph glyph-name="p" unicode="p" 
d="M138 244q0 -28 7.5 -65t23.5 -70.5t40 -57t57 -23.5q29 0 50 18t34 47t19 65.5t6 72.5q0 41 -6 80t-19.5 69.5t-34 49t-50.5 18.5q-31 0 -54.5 -21.5t-39.5 -53t-24.5 -67t-8.5 -62.5zM83 476h55v-96h2q4 12 13.5 30t25 35t38.5 29.5t53 12.5q42 0 73.5 -19.5t52 -53.5
t30.5 -80.5t10 -100.5q0 -47 -9 -91t-29 -78t-52 -54.5t-77 -20.5q-34 0 -57 12.5t-38 29.5t-23 35t-11 29h-2v-309h-55v690z" />
    <glyph glyph-name="q" unicode="q" 
d="M107 233q0 -37 6.5 -73.5t19.5 -66t33 -47.5t48 -18q34 0 58.5 23t40.5 56.5t23.5 70.5t7.5 65q0 27 -8 62t-24 67t-40 54t-56 22q-28 0 -48.5 -18.5t-34 -48.5t-20 -68.5t-6.5 -79.5zM344 96h-2q-4 -11 -11.5 -29t-22 -35.5t-37.5 -30t-58 -12.5q-46 0 -77.5 21
t-51.5 55.5t-29 78t-9 89.5q0 55 10 102t30.5 80.5t51.5 52.5t73 19q31 0 54.5 -12t39.5 -29t25 -35t12 -30h2v95h55v-690h-55v310z" />
    <glyph glyph-name="r" unicode="r" horiz-adv-x="315" 
d="M83 476h55v-106h2q24 45 59 79t88 38v-72h-16q-39 0 -64.5 -17t-40.5 -42.5t-21.5 -56.5t-6.5 -59v-240h-55v476z" />
    <glyph glyph-name="s" unicode="s" horiz-adv-x="352" 
d="M304 411q-7 3 -19.5 9t-28.5 11.5t-35 10t-40 4.5q-38 0 -65.5 -15.5t-27.5 -51.5q0 -21 8 -34.5t22 -23.5t33 -19t41 -20q25 -12 50.5 -23.5t46 -28t33.5 -40t13 -59.5q0 -25 -7.5 -50t-27.5 -45.5t-54 -33.5t-87 -13q-51 0 -83 6.5t-49 14.5v61q4 -3 17.5 -9t32 -12
t41.5 -10.5t46 -4.5q51 0 80.5 21t29.5 66q0 26 -12.5 43t-35 30.5t-53 27t-67.5 31.5q-28 15 -51 42t-23 68q0 34 13 57.5t34.5 38t50.5 21t62 6.5q37 0 66.5 -7t45.5 -10v-59z" />
    <glyph glyph-name="t" unicode="t" horiz-adv-x="322" 
d="M299 -8l-24 -2t-25 -1q-24 0 -48 3.5t-43.5 14.5t-31.5 33t-12 60v335h-78v41h78v111l55 34v-145h125v-41h-125v-297q0 -17 1.5 -36.5t9.5 -36t25.5 -27t49.5 -10.5q23 0 43 7v-43z" />
    <glyph glyph-name="u" unicode="u" horiz-adv-x="501" 
d="M360 118h-2q-4 -12 -13 -33.5t-25.5 -43t-41 -37t-59.5 -15.5q-46 0 -73.5 15.5t-42.5 38.5t-19.5 50.5t-4.5 50.5v332h55v-319q0 -55 21 -86.5t59 -31.5q39 0 66.5 21.5t45 54.5t26 72t8.5 74v215h55v-476h-55v118z" />
    <glyph glyph-name="v" unicode="v" horiz-adv-x="426" 
d="M11 476h60l154 -403h2l135 403h54l-166 -476h-53z" />
    <glyph glyph-name="w" unicode="w" horiz-adv-x="667" 
d="M44 476h57l97 -396h2l112 396h49l118 -396h2l91 396h51l-113 -476h-53l-118 397h-2l-117 -397h-53z" />
    <glyph glyph-name="x" unicode="x" horiz-adv-x="412" 
d="M171 255l-141 221h64l118 -182l114 182h58l-143 -228l160 -248h-66l-134 209l-131 -209h-59z" />
    <glyph glyph-name="y" unicode="y" horiz-adv-x="426" 
d="M201 5l-190 471h59l160 -394l133 394h53l-228 -661h-50z" />
    <glyph glyph-name="z" unicode="z" horiz-adv-x="389" 
d="M27 42l261 393h-242v41h315v-28l-267 -407h268v-41h-335v42z" />
    <glyph glyph-name="braceleft" unicode="{" 
d="M395 -235q-38 1 -75.5 14.5t-67.5 36t-49 53t-19 66.5q0 27 3.5 50t8.5 46q5 26 10.5 50t5.5 44q0 23 -9 43.5t-24.5 36.5t-35.5 28t-41 19v24q21 7 41 18t35.5 27t24.5 36.5t9 45.5q0 20 -5.5 44t-10.5 50q-5 23 -8.5 46t-3.5 50q0 36 19 66.5t49 53t67.5 35.5t75.5 15
v-25q-28 -6 -48 -20t-33 -33t-19.5 -40.5t-6.5 -42.5q0 -20 2 -40.5t5 -44.5q2 -18 4.5 -41.5t2.5 -37.5q0 -42 -17 -71.5t-41.5 -49.5t-51 -32.5t-45.5 -20.5q19 -8 45.5 -21.5t51 -34t41.5 -49.5t17 -69q0 -14 -2.5 -37.5t-4.5 -41.5q-3 -24 -5 -44.5t-2 -40.5
q0 -21 6.5 -42.5t19.5 -40.5t33 -33t48 -20v-25z" />
    <glyph glyph-name="bar" unicode="|" horiz-adv-x="241" 
d="M93 761h55v-897h-55v897z" />
    <glyph glyph-name="braceright" unicode="}" 
d="M90 -210q28 6 48 20t33 33t19.5 40.5t6.5 42.5q0 20 -2 40.5t-5 44.5q-2 18 -4.5 41.5t-2.5 37.5q0 40 17 69t41.5 49.5t51 34t45.5 21.5q-19 8 -45.5 20.5t-51 32.5t-41.5 49.5t-17 71.5q0 14 2.5 37.5t4.5 41.5q3 24 5 44.5t2 40.5q0 21 -6.5 42.5t-19.5 40.5t-33 33
t-48 20v25q37 -2 75 -15t68 -35.5t49 -53t19 -66.5q0 -27 -3.5 -50t-8.5 -46q-5 -26 -10.5 -50t-5.5 -44q0 -25 9 -45.5t24.5 -36.5t35.5 -27t41 -18v-24q-21 -7 -41 -19t-35.5 -28t-24.5 -36.5t-9 -43.5q0 -20 5.5 -44t10.5 -50q5 -23 8.5 -46t3.5 -50q0 -36 -19 -66.5
t-49 -53t-68 -36t-75 -14.5v25z" />
    <glyph glyph-name="asciitilde" unicode="~" horiz-adv-x="575" 
d="M58 211q0 13 4.5 34t17 40t34.5 33t57 14q32 0 51 -14t38 -31l84 -77q14 -15 28 -26t34 -11q17 0 28.5 7t19 18t10.5 25t3 28v45h49v-49q0 -11 -3.5 -32t-15.5 -41t-34 -35t-59 -15q-32 0 -52 15t-36 29l-89 82q-14 13 -25.5 23t-31.5 10t-32.5 -8.5t-19.5 -20.5
t-9 -24.5t-2 -21.5v-45h-49v48z" />
    <glyph glyph-name="exclamdown" unicode="&#xa1;" horiz-adv-x="260" 
d="M53 554h80v-80h-80v80zM68 374h50l11 -510h-72z" />
    <glyph glyph-name="cent" unicode="&#xa2;" horiz-adv-x="426" 
d="M201 450q-48 -11 -68 -60t-20 -121q0 -89 26.5 -142.5t61.5 -74.5v398zM201 3q-34 6 -62.5 24.5t-49.5 50t-32.5 76.5t-11.5 104q0 106 43 163.5t113 65.5v73h40v-73q65 -7 102.5 -45t37.5 -106h-66q0 47 -16 75.5t-58 39.5v-415q12 -2 24.5 -3.5t24.5 -1.5q44 0 85 12
v-39q-14 -4 -41.5 -8t-62.5 -4q-8 0 -15 0.5t-15 0.5v-81h-40v91z" />
    <glyph glyph-name="sterling" unicode="&#xa3;" horiz-adv-x="408" 
d="M94 308h-63v44h63v157q0 88 40.5 122.5t116.5 34.5q47 0 77 -14.5t47.5 -35.5t25 -45t10.5 -43h-72q0 13 -3.5 29.5t-14 30.5t-29 24t-47.5 10q-53 0 -71 -34.5t-18 -94.5v-141h100v-44h-100v-260h240v-48h-302v308z" />
    <glyph glyph-name="fraction" unicode="&#x2044;" horiz-adv-x="201" 
d="M171 634h47l-196 -634h-49z" />
    <glyph glyph-name="fraction" unicode="&#x2215;" horiz-adv-x="201" 
d="M171 634h47l-196 -634h-49z" />
    <glyph glyph-name="yen" unicode="&#xa5;" 
d="M185 358h-155v41h132l-162 291h69l172 -314l176 314h65l-165 -291h135v-41h-158l-24 -41v-77h182v-41h-182v-199h-62v199h-178v41h178v77z" />
    <glyph glyph-name="florin" unicode="&#x192;" horiz-adv-x="334" 
d="M122 435h-79l7 41h80l4 21q4 25 10.5 59t24.5 64.5t53 51.5t98 21q23 0 37 -3t25 -5l-9 -49q-15 5 -30.5 11.5t-31.5 6.5q-41 0 -63 -16t-33.5 -39.5t-15.5 -50.5t-8 -50l-4 -22h133l-8 -41h-133l-76 -435h-57z" />
    <glyph glyph-name="section" unicode="&#xa7;" horiz-adv-x="426" 
d="M181 281q43 -19 66.5 -28t34.5 -15q4 3 12.5 11.5t17 21t14.5 27.5t6 32q0 18 -6.5 32t-16 24t-22 17.5t-24.5 13.5q-14 7 -31.5 14t-35.5 13.5t-33.5 13t-25.5 11.5q-5 -6 -12.5 -14t-14.5 -19.5t-11.5 -26t-4.5 -33.5q0 -22 7 -36.5t19 -25t27.5 -18t33.5 -15.5z
M348 611q-8 6 -20.5 13.5t-29 15t-36 12.5t-40.5 5q-45 0 -72.5 -21t-27.5 -51q0 -33 25 -53t60.5 -35t73 -28t63.5 -32q49 -37 49 -91q0 -27 -10.5 -48.5t-24.5 -37t-27 -25t-18 -12.5q5 -4 14.5 -11t18.5 -18.5t16 -27.5t7 -38q0 -34 -14.5 -60t-40 -43.5t-59.5 -26.5
t-73 -9q-45 0 -70.5 7.5t-39.5 11.5v75q23 -16 51 -32t69 -16q30 0 50.5 8.5t33.5 21t19 28t6 30.5q0 31 -24 50t-57.5 33.5t-70.5 27.5t-63 31q-29 20 -41 44.5t-12 53.5q0 26 10 47t22.5 37t24.5 26t17 15l-12 9t-15.5 16.5t-13 26t-5.5 35.5q0 27 12 50.5t32.5 40
t48.5 26t60 9.5q21 0 42 -3t39.5 -6.5t32.5 -7.5t20 -6v-67z" />
    <glyph glyph-name="currency" unicode="&#xa4;" horiz-adv-x="500" 
d="M80 356q0 -35 13.5 -66t36.5 -54t54 -36t66 -13t66 13t54 36t36.5 54t13.5 66q0 36 -13.5 67.5t-36.5 55t-54 37t-66 13.5t-66 -13.5t-54 -37t-36.5 -55t-13.5 -67.5zM389 189q-10 -6 -22.5 -14.5t-29 -16t-38 -12.5t-49.5 -5t-49.5 5t-38 12.5t-29 15.5t-22.5 15
l-67 -67l-31 31l67 67q-4 6 -12 17.5t-15.5 28.5t-13 39.5t-5.5 50.5q0 30 5 52.5t12.5 39.5t15.5 28.5t13 19.5l-67 67l32 31l66 -67q10 7 22.5 15.5t29.5 15.5t38.5 12t48.5 5t48.5 -5t38 -12t29.5 -15.5t23 -15.5l66 67l32 -31l-67 -67q5 -8 13 -19.5t15.5 -28.5
t12.5 -39.5t5 -52.5q0 -28 -5.5 -50.5t-13 -39.5t-15.5 -28.5t-12 -17.5l67 -67l-31 -31z" />
    <glyph glyph-name="quotesingle" unicode="'" horiz-adv-x="185" 
d="M57 690h72l-15 -206h-42z" />
    <glyph glyph-name="quotedblleft" unicode="&#x201c;" horiz-adv-x="315" 
d="M80 690h53l-11 -206h-72zM210 690h53l-11 -206h-72z" />
    <glyph glyph-name="guillemotleft" unicode="&#xab;" horiz-adv-x="315" 
d="M145 241l83 186h47l-57 -186l57 -182h-47zM28 241l84 186h47l-57 -186l57 -182h-47z" />
    <glyph glyph-name="guilsinglleft" unicode="&#x2039;" horiz-adv-x="204" 
d="M31 241l83 186h48l-58 -186l58 -182h-48z" />
    <glyph glyph-name="guilsinglright" unicode="&#x203a;" horiz-adv-x="204" 
d="M100 244l-58 183h48l83 -183l-83 -185h-48z" />
    <glyph glyph-name="endash" unicode="&#x2013;" 
d="M57 271h368v-56h-368v56z" />
    <glyph glyph-name="dagger" unicode="&#x2020;" horiz-adv-x="463" 
d="M201 388h-161v47h161v255h61v-255h161v-47h-161v-388h-61v388z" />
    <glyph glyph-name="daggerdbl" unicode="&#x2021;" 
d="M210 334h-161v47h161v68h-161v47h161v194h61v-194h162v-47h-162v-68h162v-47h-162v-334h-61v334z" />
    <glyph glyph-name="periodcentered" unicode="&#xb7;" horiz-adv-x="204" 
d="M59 359h85v-85h-85v85z" />
    <glyph glyph-name="periodcentered" unicode="&#x2219;" horiz-adv-x="204" 
d="M59 359h85v-85h-85v85z" />
    <glyph glyph-name="paragraph" unicode="&#xb6;" 
d="M272 223q-32 4 -70 17t-72 39.5t-56.5 68t-22.5 102.5q0 65 27 111t70 74.5t96 41.5t106 13h115v-37h-58v-867h-37v867h-61v-867h-37v437z" />
    <glyph glyph-name="bullet" unicode="&#x2022;" 
d="M241 180q-37 0 -70 14t-57.5 38.5t-39 57.5t-14.5 70t14 70.5t39 58t57.5 39t70.5 14.5q37 0 70 -14.5t58 -39t39 -58t14 -70.5t-14.5 -70t-39 -57.5t-57.5 -38.5t-70 -14z" />
    <glyph glyph-name="quotesinglbase" unicode="&#x201a;" horiz-adv-x="185" 
d="M63 83h72l-30 -206h-53z" />
    <glyph glyph-name="quotedblbase" unicode="&#x201e;" horiz-adv-x="315" 
d="M193 83h72l-30 -206h-53zM63 83h72l-30 -206h-53z" />
    <glyph glyph-name="quotedblright" unicode="&#x201d;" horiz-adv-x="315" 
d="M193 690h72l-30 -206h-53zM63 690h72l-30 -206h-53z" />
    <glyph glyph-name="guillemotright" unicode="&#xbb;" horiz-adv-x="315" 
d="M214 244l-58 183h47l84 -183l-84 -185h-47zM97 244l-57 183h47l84 -183l-84 -185h-47z" />
    <glyph glyph-name="ellipsis" unicode="&#x2026;" horiz-adv-x="686" 
d="M542 79h79v-79h-79v79zM303 79h79v-79h-79v79zM64 79h79v-79h-79v79z" />
    <glyph glyph-name="perthousand" unicode="&#x2030;" horiz-adv-x="1112" 
d="M464 634h47l-196 -634h-48zM856 207q0 -30 2.5 -61t11.5 -57t26 -42.5t46 -16.5q31 0 49.5 16.5t28 42.5t12.5 57t3 61q0 31 -3 64t-12.5 60.5t-28 45t-49.5 17.5q-29 0 -46 -17.5t-26 -45t-11.5 -60.5t-2.5 -64zM945 -11q-50 0 -78.5 20.5t-42.5 52.5t-18 70.5t-4 73.5
q0 37 4 77.5t18 74t42.5 55.5t78.5 22q49 0 78 -22t43.5 -55.5t18.5 -74t4 -77.5q0 -35 -4 -73.5t-18.5 -70.5t-43.5 -52.5t-78 -20.5zM523 207q0 -30 2.5 -61t11.5 -57t26 -42.5t46 -16.5q30 0 48.5 16.5t28 42.5t12.5 57t3 61q0 31 -3 64t-12.5 60.5t-28 45t-48.5 17.5
q-29 0 -46 -17.5t-26 -45t-11.5 -60.5t-2.5 -64zM612 -11q-50 0 -78.5 20.5t-42.5 52.5t-18 70.5t-4 73.5q0 37 4 77.5t18 74t42.5 55.5t78.5 22q49 0 78 -22t43 -55.5t18 -74t4 -77.5q0 -35 -4 -73.5t-18 -70.5t-43 -52.5t-78 -20.5zM78 417q0 -30 2.5 -61t11.5 -57
t26 -42.5t46 -16.5q30 0 48.5 16.5t28 42.5t12.5 57t3 61q0 31 -3 64t-12.5 60.5t-28 45t-48.5 17.5q-29 0 -46 -17.5t-26 -45t-11.5 -60.5t-2.5 -64zM167 199q-50 0 -78.5 20.5t-42.5 52.5t-18 70.5t-4 73.5q0 37 4 77.5t18 74t42.5 55.5t78.5 22q49 0 78 -22t43 -55.5
t18 -74t4 -77.5q0 -35 -4 -73.5t-18 -70.5t-43 -52.5t-78 -20.5z" />
    <glyph glyph-name="questiondown" unicode="&#xbf;" horiz-adv-x="389" 
d="M188 554h80v-80h-80v80zM321 -123q-24 -9 -55 -16.5t-70 -7.5q-32 0 -63 7.5t-56.5 24.5t-41 45.5t-15.5 69.5q0 33 13.5 63t34 57.5t43.5 52t41 46.5q27 33 38 57.5t11 47.5v51h54v-73q0 -30 -6 -49t-18 -35.5t-30.5 -35.5t-43.5 -51q-14 -18 -26 -33t-22 -30t-15.5 -32
t-5.5 -39q0 -46 30.5 -71t74.5 -25q19 0 38 4.5t36.5 11.5t31 15t22.5 14v-69z" />
    <glyph glyph-name="grave" unicode="`" horiz-adv-x="301" 
d="M77 678h74l41 -119h-54z" />
    <glyph glyph-name="acute" unicode="&#xb4;" horiz-adv-x="301" 
d="M165 678h74l-61 -119h-54z" />
    <glyph glyph-name="circumflex" unicode="&#x2c6;" horiz-adv-x="301" 
d="M122 678h59l84 -119h-53l-59 75l-64 -75h-53z" />
    <glyph glyph-name="tilde" unicode="&#x2dc;" horiz-adv-x="301" 
d="M39 559q0 15 2.5 32.5t9 32.5t17.5 25t27 10q13 0 28 -8t30 -17q14 -9 26 -16.5t22 -7.5q8 0 13 5t7.5 11.5t3.5 14t1 13.5h35q0 -12 -1.5 -29t-7.5 -32t-17.5 -25.5t-31.5 -10.5q-11 0 -25 6t-29 14q-17 10 -31 18t-21 8q-8 0 -12 -5.5t-6.5 -13t-3.5 -15t-1 -10.5h-35z
" />
    <glyph glyph-name="macron" unicode="&#xaf;" horiz-adv-x="301" 
d="M35 612h230v-53h-230v53z" />
    <glyph glyph-name="macron" unicode="&#x2c9;" horiz-adv-x="301" 
d="M35 612h230v-53h-230v53z" />
    <glyph glyph-name="breve" unicode="&#x2d8;" horiz-adv-x="301" 
d="M262 678q0 -19 -6 -40.5t-19 -39.5t-34 -30t-51 -12q-31 0 -52.5 12t-35 30t-19.5 39.5t-6 40.5h34q0 -10 4 -22t13.5 -22.5t24.5 -17.5t37 -7t36.5 7t23.5 17.5t12.5 22.5t3.5 22h34z" />
    <glyph glyph-name="dotaccent" unicode="&#x2d9;" horiz-adv-x="301" 
d="M112 651h77v-81h-77v81z" />
    <glyph glyph-name="dieresis" unicode="&#xa8;" horiz-adv-x="301" 
d="M203 648h74v-78h-74v78zM39 648h74v-78h-74v78z" />
    <glyph glyph-name="ring" unicode="&#x2da;" horiz-adv-x="301" 
d="M91 618q0 -20 12.5 -33t31.5 -13q18 0 31.5 13t13.5 33q0 19 -13 32t-32 13t-31.5 -13t-12.5 -32zM135 538q-32 0 -55 23.5t-23 56.5q0 32 23 55.5t55 23.5q33 0 56 -23.5t23 -55.5q0 -33 -23 -56.5t-56 -23.5z" />
    <glyph glyph-name="cedilla" unicode="&#xb8;" horiz-adv-x="301" 
d="M173 -60q7 0 22.5 -1.5t31 -8.5t27 -21t11.5 -41q0 -32 -23 -57t-69 -25q-19 0 -33 3t-25 8v42q4 -3 18.5 -11.5t34.5 -8.5t34.5 13t14.5 33q0 14 -6 23t-15.5 14.5t-21 7.5t-21.5 2h-19l17 104h36z" />
    <glyph glyph-name="hungarumlaut" unicode="&#x2dd;" horiz-adv-x="301" 
d="M228 678h73l-60 -119h-55zM114 678h74l-61 -119h-54z" />
    <glyph glyph-name="ogonek" unicode="&#x2db;" horiz-adv-x="301" 
d="M225 -200q-14 -4 -24.5 -6t-30.5 -2q-19 0 -36 5.5t-30 15.5t-21 25t-8 34q0 24 11 46t25 41t28.5 32t20.5 19h37q-5 -5 -17 -17.5t-24.5 -30t-22.5 -38.5t-10 -41q0 -26 14.5 -41t37.5 -15q17 0 31 5.5t19 9.5v-42z" />
    <glyph glyph-name="caron" unicode="&#x2c7;" horiz-adv-x="301" 
d="M36 678h53l60 -75l63 75h53l-86 -119h-59z" />
    <glyph glyph-name="emdash" unicode="&#x2014;" horiz-adv-x="667" 
d="M57 271h553v-56h-553v56z" />
    <glyph glyph-name="AE" unicode="&#xc6;" horiz-adv-x="760" 
d="M261 359h154l-18 252h-2zM391 690h319v-46h-256l21 -285h222v-46h-220l20 -265h221v-48h-280l-21 313h-181l-174 -313h-62z" />
    <glyph glyph-name="ordfeminine" unicode="&#xaa;" horiz-adv-x="260" 
d="M79 353q0 -18 12 -28.5t29 -10.5q30 0 46.5 23.5t16.5 68.5q-8 0 -25.5 -1t-35 -6t-30.5 -15.5t-13 -30.5zM183 313q-11 -12 -27 -23.5t-45 -11.5q-34 0 -54 21t-20 50q0 28 16 45t39 26t48 12t43 3v11q0 18 -1 33t-5.5 26t-14.5 17.5t-28 6.5q-15 0 -23.5 -4t-13 -11
t-6 -16t-2.5 -19h-47q1 14 5.5 28t15 25.5t28.5 18.5t46 7t45 -8.5t26 -22t11.5 -30t2.5 -33.5v-183h-39v32z" />
    <glyph glyph-name="Oslash" unicode="&#xd8;" horiz-adv-x="575" 
d="M394 610q-6 5 -16.5 13t-24.5 15t-30.5 12t-35.5 5q-13 0 -30.5 -4t-36 -16t-37 -33.5t-32.5 -56t-23 -84.5t-9 -119q0 -23 1.5 -52.5t4.5 -58.5t7 -53t9 -34zM166 101q7 -8 17 -19t24 -21.5t32.5 -18t44.5 -7.5q52 0 85 29t52.5 74.5t27 101t7.5 107.5q0 58 -3 95t-8 61
t-11 38.5t-12 28.5zM452 629q12 -14 24.5 -36.5t23 -55.5t17.5 -77t7 -99q0 -77 -12 -144.5t-40 -118t-74 -80t-114 -29.5q-32 0 -56.5 6.5t-43 15.5t-30.5 18.5t-19 15.5l-44 -82l-37 20l55 99q-22 25 -40 86.5t-18 174.5q0 70 12 134.5t39.5 114t73 79.5t112.5 30
q45 0 80 -12.5t51 -27.5l41 67l35 -23z" />
    <glyph glyph-name="OE" unicode="&#x152;" horiz-adv-x="853" 
d="M119 362q0 -60 8.5 -119t29.5 -105t56.5 -74.5t90.5 -28.5q84 0 128 79.5t44 229.5q0 63 -10.5 119t-33 99t-57.5 68t-83 25q-50 0 -83.5 -26t-53.5 -67.5t-28 -94t-8 -105.5zM476 126h-2q-7 -16 -18 -39.5t-31.5 -45t-51.5 -37t-78 -15.5q-69 0 -116 31.5t-75.5 82.5
t-40.5 116t-12 133q0 58 9.5 120t35.5 113t72 83.5t120 32.5q47 0 79.5 -15t54 -36.5t33.5 -45.5t19 -41h2v127h325v-46h-264v-257h251v-46h-251v-293h274v-48h-335v126z" />
    <glyph glyph-name="ordmasculine" unicode="&#xba;" horiz-adv-x="278" 
d="M70 423q0 -24 3.5 -45.5t11.5 -37.5t21 -25.5t33 -9.5t33 9.5t21 24.5t11.5 34t3.5 39q0 22 -3.5 43t-11.5 37.5t-21.5 26.5t-34.5 10q-20 0 -33 -10t-20.5 -25.5t-10.5 -34t-3 -36.5zM139 276q-29 0 -50.5 11t-35 30t-20 45t-6.5 57q0 29 6.5 54.5t20 44t34.5 29.5
t50 11q30 0 51.5 -12t35 -32t20 -46t6.5 -54q0 -60 -27 -99t-85 -39z" />
    <glyph glyph-name="ae" unicode="&#xe6;" horiz-adv-x="709" 
d="M604 276q0 24 -1.5 54t-11.5 56t-30.5 44t-59.5 18t-63.5 -18t-38 -44t-18.5 -56t-5 -54h228zM321 237q-8 0 -27 0.5t-43.5 -2t-50 -8t-47 -18t-35.5 -32.5t-14 -51q0 -41 27.5 -64t68.5 -23q45 0 70 19t36 45t13 54.5t2 47.5v32zM652 0q-8 -2 -37 -6.5t-64 -4.5
q-45 0 -79.5 12.5t-59 30.5t-40.5 38.5t-23 37.5q-5 -16 -17 -36.5t-32 -39t-49.5 -31t-68.5 -12.5q-65 0 -102 36.5t-37 94.5q0 39 16.5 65.5t42.5 44t58 27t63 14t57 5t41 0.5v59q0 15 -3 34.5t-13 37t-29.5 29.5t-53.5 12q-25 0 -43.5 -8t-31 -19.5t-19 -25.5t-7.5 -26
h-69q2 15 11.5 35.5t29.5 38.5t52 31t78 13q31 0 52.5 -7.5t36.5 -18.5t24 -25t14 -26q7 9 20 22t31.5 25t43.5 21t55 9q56 0 89 -23.5t50 -55t21.5 -63t4.5 -46.5v-62h-289q0 -23 11 -58t34 -68t60 -57t90 -24q29 0 49 4t32 9v-43z" />
    <glyph glyph-name="dotlessi" unicode="&#x131;" horiz-adv-x="222" 
d="M84 476h55v-476h-55v476z" />
    <glyph glyph-name="oslash" unicode="&#xf8;" 
d="M313 430q-14 7 -29.5 12.5t-44.5 5.5q-35 0 -60.5 -17t-41.5 -45.5t-23.5 -66t-7.5 -78.5q0 -57 7 -92t16 -55zM153 62q5 -4 12 -10t17 -11t23.5 -9t31.5 -4q37 0 63 17t43 46.5t25 68t8 81.5q0 37 -3.5 64t-9 45.5t-12.5 31t-13 21.5zM361 445q12 -9 25.5 -26.5
t25 -42.5t18.5 -58t7 -75q0 -58 -13.5 -105t-38.5 -80t-62 -51t-83 -18q-23 0 -41 4.5t-32 10.5t-23.5 12t-13.5 8l-39 -71l-33 16l46 78q-10 13 -20.5 29t-19 37.5t-14 50t-5.5 66.5q0 66 14.5 114.5t40.5 80t61.5 47t76.5 15.5q35 0 61 -9.5t32 -14.5l35 61l30 -17z" />
    <glyph glyph-name="oe" unicode="&#x153;" horiz-adv-x="765" 
d="M661 277q0 25 -2.5 55t-12.5 55.5t-31 43t-57 17.5q-39 0 -62.5 -17.5t-36.5 -43t-17.5 -55.5t-4.5 -55h224zM106 253q0 -43 6 -83.5t21.5 -72t42.5 -50.5t68 -19q39 0 64.5 16.5t40.5 44.5t21.5 65t6.5 77q0 39 -6 78t-22 70t-42.5 50t-68.5 19q-39 0 -64.5 -17.5
t-40.5 -45t-21 -62.5t-6 -70zM710 0q-16 -5 -36.5 -8t-57.5 -3q-51 0 -86 12.5t-59 31t-38.5 39.5t-24.5 37q-4 -13 -14.5 -33.5t-30 -39.5t-49.5 -33t-72 -14q-51 0 -88 20t-61.5 54t-36 79t-11.5 96q0 55 11 100.5t35 78.5t62 51.5t91 18.5q37 0 64.5 -9.5t46.5 -24
t31.5 -30.5t20.5 -28q6 13 17 29t29 30t43 23.5t59 9.5q46 0 78 -16.5t51.5 -45t28.5 -67.5t9 -85v-35h-283q0 -31 13 -67t37 -67.5t59 -52.5t79 -21q28 0 49.5 5t33.5 10v-45z" />
    <glyph glyph-name="germandbls" unicode="&#xdf;" horiz-adv-x="501" 
d="M83 525q0 39 6.5 69t29.5 55q20 22 53 37t73 15q35 0 66 -11.5t54 -34t36.5 -54.5t13.5 -73q0 -38 -11 -65t-27 -45t-35 -28t-34 -14v-2q25 -3 51 -11.5t47.5 -28.5t35 -54t13.5 -87q0 -94 -48.5 -145.5t-139.5 -51.5q-29 0 -45.5 2t-27.5 4v45q10 -2 27.5 -7t40.5 -5
q28 0 52.5 8t42 27t27.5 49t10 75q0 81 -36 117t-99 36h-21v47h21q10 0 26 7.5t31.5 23t26.5 40t11 59.5q0 65 -33.5 101.5t-82.5 36.5q-35 0 -55 -17.5t-30 -42.5t-12.5 -53t-2.5 -49v-500h-55v525z" />
    <glyph glyph-name="divide" unicode="&#xf7;" horiz-adv-x="575" 
d="M248 472h79v-79h-79v79zM248 79h79v-79h-79v79zM60 261h455v-50h-455v50z" />
    <glyph glyph-name="registered" unicode="&#xae;" horiz-adv-x="500" 
d="M206 488h54q16 0 27 7.5t11 24.5q0 33 -42 33h-50v-65zM161 596h83q18 0 36 -2.5t32.5 -10.5t23.5 -24t9 -43q0 -17 -4.5 -27t-11 -17t-14 -10.5t-13.5 -6.5l46 -107h-50l-39 100h-53v-100h-45v248zM50 466q0 -41 16 -77.5t43 -63.5t63.5 -43t77.5 -16t77.5 16t63.5 43
t43 63.5t16 77.5t-16 77.5t-43 63.5t-63.5 43t-77.5 16t-77.5 -16t-63.5 -43t-43 -63.5t-16 -77.5zM250 231q-48 0 -91 18.5t-75 50.5t-50.5 74.5t-18.5 91.5q0 48 18.5 91t50.5 75t75 50.5t91 18.5t91 -18.5t75 -50.5t50.5 -75t18.5 -91q0 -49 -18.5 -91.5t-50.5 -74.5
t-75 -50.5t-91 -18.5z" />
    <glyph glyph-name="ccedilla" unicode="&#xe7;" horiz-adv-x="408" 
d="M202 -3q-49 11 -79.5 37.5t-48 61t-23.5 74.5t-6 79q0 62 13 107t37 74t57 43t74 14q49 0 79 -17t46.5 -41t21.5 -50t5 -44h-69q0 15 -1.5 34.5t-9.5 37t-26.5 29.5t-51.5 12q-35 0 -57 -17t-34.5 -44t-17.5 -60.5t-5 -66.5q0 -50 12 -92.5t35.5 -73t57 -47.5t77.5 -17
q18 0 36 2.5t36 8.5v-41q-21 -6 -43 -8.5t-44 -2.5q-10 0 -19 0.5t-18 1.5l-9 -51q7 0 22.5 -1.5t31 -8.5t27 -21t11.5 -41q0 -32 -23 -57t-69 -25q-19 0 -33 3t-25 8v42q4 -3 18.5 -11.5t34.5 -8.5t34.5 13t14.5 33q0 14 -6 23t-15.5 14.5t-21 7.5t-21.5 2h-19z" />
    <glyph glyph-name="plusminus" unicode="&#xb1;" horiz-adv-x="575" 
d="M260 212h-200v50h200v200h55v-200h200v-50h-200v-212h-55v212zM60 -41h455v-50h-455v50z" />
    <glyph glyph-name="Ccedilla" unicode="&#xc7;" horiz-adv-x="519" 
d="M257 -5q-54 12 -93 44t-64 80.5t-37 110t-12 132.5q0 29 3.5 65.5t13 74.5t26.5 73.5t44.5 63.5t66 45t90.5 17q49 0 88 -16t66 -43t41 -63t14 -76h-76q0 26 -6.5 53t-22.5 49t-41.5 36t-64.5 14q-58 0 -92.5 -31t-52.5 -75.5t-23.5 -93.5t-5.5 -85q0 -67 11 -128
t35.5 -107t63 -73t93.5 -27q28 0 51 6t42 15.5t34 21t28 22.5v-65q-22 -15 -61.5 -30.5t-101.5 -15.5h-12t-11 1l-9 -50q7 0 22.5 -1.5t31 -8.5t27 -21t11.5 -41q0 -32 -23 -57t-69 -25q-19 0 -33 3t-25 8v42q4 -3 18.5 -11.5t34.5 -8.5t34.5 13t14.5 33q0 14 -6 23
t-15.5 14.5t-21 7.5t-21.5 2h-19z" />
    <glyph glyph-name="copyright" unicode="&#xa9;" horiz-adv-x="500" 
d="M356 375q-4 -4 -11.5 -10.5t-19 -13t-27.5 -11t-37 -4.5q-27 0 -51.5 10t-43 28t-30 42.5t-11.5 53.5t11.5 53.5t30.5 42.5t43.5 28t50.5 10q21 0 36.5 -4.5t27.5 -11t19.5 -13t11.5 -10.5l-26 -33q-9 8 -26 19.5t-43 11.5q-16 0 -32.5 -6t-30 -18t-22 -29.5t-8.5 -39.5
q0 -23 8.5 -40.5t22 -29t29 -17.5t30.5 -6q32 0 47.5 11t24.5 19zM50 466q0 -41 16 -77.5t43 -63.5t63.5 -43t77.5 -16t77.5 16t63.5 43t43 63.5t16 77.5t-16 77.5t-43 63.5t-63.5 43t-77.5 16t-77.5 -16t-63.5 -43t-43 -63.5t-16 -77.5zM250 231q-49 0 -91.5 18.5
t-74.5 50.5t-50.5 74.5t-18.5 91.5q0 48 18.5 91t50.5 75t74.5 50.5t91.5 18.5q48 0 91 -18.5t75 -50.5t50.5 -75t18.5 -91q0 -49 -18.5 -91.5t-50.5 -74.5t-75 -50.5t-91 -18.5z" />
    <glyph glyph-name="logicalnot" unicode="&#xac;" horiz-adv-x="574" 
d="M465 281h-406v50h456v-188h-50v138z" />
    <glyph glyph-name="trademark" unicode="&#x2122;" horiz-adv-x="612" 
d="M263 690h78l60 -228h2l59 228h80v-290h-43v262h-2l-68 -262h-53l-68 262h-2v-262h-43v290zM113 648h-73v42h190v-42h-74v-248h-43v248z" />
    <glyph glyph-name="degree" unicode="&#xb0;" horiz-adv-x="334" 
d="M100 540q0 -27 19 -48t48 -21q28 0 47 20.5t19 48.5q0 27 -19.5 45.5t-46.5 18.5t-47 -18.5t-20 -45.5zM167 430q-23 0 -42.5 8.5t-34 23.5t-23 35t-8.5 43q0 22 8.5 41t23.5 33.5t34.5 22.5t41.5 8t41.5 -8.5t34 -22.5t23 -33.5t8.5 -41.5t-8.5 -42t-22.5 -35t-34 -23.5
t-42 -8.5z" />
    <glyph glyph-name="mu" unicode="&#xb5;" horiz-adv-x="501" 
d="M81 476h55v-273q0 -26 2.5 -55t13 -53t31 -40t56.5 -16q29 0 49 13t33 33t20.5 45.5t11 50t4.5 46t1 34.5v215h55v-367q0 -15 0.5 -28.5t4 -23.5t11 -15.5t21.5 -5.5h12v-42q-10 -2 -17 -2q-20 0 -41 8t-29 23q-4 7 -7 13.5t-4.5 14.5t-2.5 20t-1 29h-2q-2 -12 -9 -30.5
t-22 -36.5t-39.5 -31t-60.5 -13q-21 0 -36 4.5t-25.5 11t-17.5 14t-12 12.5v-245h-55v690z" />
    <glyph glyph-name="mu" unicode="&#x3bc;" horiz-adv-x="501" 
d="M81 476h55v-273q0 -26 2.5 -55t13 -53t31 -40t56.5 -16q29 0 49 13t33 33t20.5 45.5t11 50t4.5 46t1 34.5v215h55v-367q0 -15 0.5 -28.5t4 -23.5t11 -15.5t21.5 -5.5h12v-42q-10 -2 -17 -2q-20 0 -41 8t-29 23q-4 7 -7 13.5t-4.5 14.5t-2.5 20t-1 29h-2q-2 -12 -9 -30.5
t-22 -36.5t-39.5 -31t-60.5 -13q-21 0 -36 4.5t-25.5 11t-17.5 14t-12 12.5v-245h-55v690z" />
    <glyph glyph-name="numbersign" unicode="#" horiz-adv-x="575" 
d="M229 269h87l23 94h-85zM165 225h-105l11 44h107l23 94h-105l11 44h107l60 227h52l-60 -227h87l58 227h52l-60 -227h112l-12 -44h-111l-25 -94h113l-12 -44h-112l-59 -225h-52l59 225h-86l-59 -225h-52z" />
    <glyph glyph-name="Aacute" unicode="&#xc1;" horiz-adv-x="538" 
d="M149 275h227l-112 351h-2zM233 690h71l224 -690h-62l-75 229h-257l-75 -229h-50zM284 892h74l-61 -119h-54z" />
    <glyph glyph-name="Acircumflex" unicode="&#xc2;" horiz-adv-x="538" 
d="M149 275h227l-112 351h-2zM233 690h71l224 -690h-62l-75 229h-257l-75 -229h-50zM241 892h59l84 -119h-53l-59 75l-64 -75h-53z" />
    <glyph glyph-name="Adieresis" unicode="&#xc4;" horiz-adv-x="538" 
d="M149 275h227l-112 351h-2zM233 690h71l224 -690h-62l-75 229h-257l-75 -229h-50zM322 862h74v-78h-74v78zM158 862h74v-78h-74v78z" />
    <glyph glyph-name="Agrave" unicode="&#xc0;" horiz-adv-x="538" 
d="M149 275h227l-112 351h-2zM233 690h71l224 -690h-62l-75 229h-257l-75 -229h-50zM196 892h74l41 -119h-54z" />
    <glyph glyph-name="Aring" unicode="&#xc5;" horiz-adv-x="538" 
d="M149 275h227l-112 351h-2zM233 690h71l224 -690h-62l-75 229h-257l-75 -229h-50zM220 832q0 -20 12.5 -33t31.5 -13q18 0 31.5 13t13.5 33q0 19 -13 32t-32 13t-31.5 -13t-12.5 -32zM264 752q-32 0 -55 23.5t-23 56.5q0 32 23 55.5t55 23.5q33 0 56 -23.5t23 -55.5
q0 -33 -23 -56.5t-56 -23.5z" />
    <glyph glyph-name="Atilde" unicode="&#xc3;" horiz-adv-x="538" 
d="M149 275h227l-112 351h-2zM233 690h71l224 -690h-62l-75 229h-257l-75 -229h-50zM158 773q0 15 2.5 32.5t9 32.5t17.5 25t27 10q13 0 28 -8t30 -17q14 -9 26 -16.5t22 -7.5q8 0 13 5t7.5 11.5t3.5 14t1 13.5h35q0 -12 -1.5 -29t-7.5 -32t-17.5 -25.5t-31.5 -10.5
q-11 0 -25 6t-29 14q-17 10 -31 18t-21 8q-8 0 -12 -5.5t-6.5 -13t-3.5 -15t-1 -10.5h-35z" />
    <glyph glyph-name="Eacute" unicode="&#xc9;" horiz-adv-x="445" 
d="M88 690h306v-46h-244v-260h232v-46h-232v-290h253v-48h-315v690zM237 892h74l-61 -119h-54z" />
    <glyph glyph-name="Ecircumflex" unicode="&#xca;" horiz-adv-x="445" 
d="M88 690h306v-46h-244v-260h232v-46h-232v-290h253v-48h-315v690zM209 892h59l84 -119h-53l-59 75l-64 -75h-53z" />
    <glyph glyph-name="Edieresis" unicode="&#xcb;" horiz-adv-x="445" 
d="M88 690h306v-46h-244v-260h232v-46h-232v-290h253v-48h-315v690zM275 862h74v-78h-74v78zM111 862h74v-78h-74v78z" />
    <glyph glyph-name="Egrave" unicode="&#xc8;" horiz-adv-x="445" 
d="M88 690h306v-46h-244v-260h232v-46h-232v-290h253v-48h-315v690zM149 892h74l41 -119h-54z" />
    <glyph glyph-name="Iacute" unicode="&#xcd;" horiz-adv-x="241" 
d="M89 690h62v-690h-62v690zM136 892h74l-61 -119h-54z" />
    <glyph glyph-name="Icircumflex" unicode="&#xce;" horiz-adv-x="241" 
d="M89 690h62v-690h-62v690zM83 892h59l84 -119h-53l-59 75l-64 -75h-53z" />
    <glyph glyph-name="Idieresis" unicode="&#xcf;" horiz-adv-x="241" 
d="M89 690h62v-690h-62v690zM159 862h74v-78h-74v78zM-5 862h74v-78h-74v78z" />
    <glyph glyph-name="Igrave" unicode="&#xcc;" horiz-adv-x="241" 
d="M89 690h62v-690h-62v690zM48 892h74l41 -119h-54z" />
    <glyph glyph-name="Ntilde" unicode="&#xd1;" horiz-adv-x="612" 
d="M88 690h77l300 -619h2v619h57v-690h-82l-295 614h-2v-614h-57v690zM195 773q0 15 2.5 32.5t9 32.5t17.5 25t27 10q13 0 28 -8t30 -17q14 -9 26 -16.5t22 -7.5q8 0 13 5t7.5 11.5t3.5 14t1 13.5h35q0 -12 -1.5 -29t-7.5 -32t-17.5 -25.5t-31.5 -10.5q-11 0 -25 6t-29 14
q-17 10 -31 18t-21 8q-8 0 -12 -5.5t-6.5 -13t-3.5 -15t-1 -10.5h-35z" />
    <glyph glyph-name="Oacute" unicode="&#xd3;" horiz-adv-x="575" 
d="M119 342q0 -18 1.5 -48t7.5 -64t17 -69t30 -63t47.5 -45.5t68.5 -17.5q41 0 69 17.5t46.5 45.5t28 63t14 69t5.5 64t1 48q0 57 -8.5 113t-28 100.5t-52 72t-80.5 27.5q-51 0 -83 -27.5t-51 -72t-26 -100.5t-7 -113zM289 -11q-74 0 -120.5 32.5t-72.5 84.5t-35.5 115
t-9.5 125q0 69 11.5 133t39 113.5t73.5 79t114 29.5q66 0 111 -29.5t72.5 -79t39 -113.5t11.5 -133q0 -62 -8.5 -125t-33.5 -115t-71 -84.5t-121 -32.5zM302 892h74l-61 -119h-54z" />
    <glyph glyph-name="Ocircumflex" unicode="&#xd4;" horiz-adv-x="575" 
d="M119 342q0 -18 1.5 -48t7.5 -64t17 -69t30 -63t47.5 -45.5t68.5 -17.5q41 0 69 17.5t46.5 45.5t28 63t14 69t5.5 64t1 48q0 57 -8.5 113t-28 100.5t-52 72t-80.5 27.5q-51 0 -83 -27.5t-51 -72t-26 -100.5t-7 -113zM289 -11q-74 0 -120.5 32.5t-72.5 84.5t-35.5 115
t-9.5 125q0 69 11.5 133t39 113.5t73.5 79t114 29.5q66 0 111 -29.5t72.5 -79t39 -113.5t11.5 -133q0 -62 -8.5 -125t-33.5 -115t-71 -84.5t-121 -32.5zM259 892h59l84 -119h-53l-59 75l-64 -75h-53z" />
    <glyph glyph-name="Odieresis" unicode="&#xd6;" horiz-adv-x="575" 
d="M119 342q0 -18 1.5 -48t7.5 -64t17 -69t30 -63t47.5 -45.5t68.5 -17.5q41 0 69 17.5t46.5 45.5t28 63t14 69t5.5 64t1 48q0 57 -8.5 113t-28 100.5t-52 72t-80.5 27.5q-51 0 -83 -27.5t-51 -72t-26 -100.5t-7 -113zM289 -11q-74 0 -120.5 32.5t-72.5 84.5t-35.5 115
t-9.5 125q0 69 11.5 133t39 113.5t73.5 79t114 29.5q66 0 111 -29.5t72.5 -79t39 -113.5t11.5 -133q0 -62 -8.5 -125t-33.5 -115t-71 -84.5t-121 -32.5zM340 862h74v-78h-74v78zM176 862h74v-78h-74v78z" />
    <glyph glyph-name="Ograve" unicode="&#xd2;" horiz-adv-x="575" 
d="M119 342q0 -18 1.5 -48t7.5 -64t17 -69t30 -63t47.5 -45.5t68.5 -17.5q41 0 69 17.5t46.5 45.5t28 63t14 69t5.5 64t1 48q0 57 -8.5 113t-28 100.5t-52 72t-80.5 27.5q-51 0 -83 -27.5t-51 -72t-26 -100.5t-7 -113zM289 -11q-74 0 -120.5 32.5t-72.5 84.5t-35.5 115
t-9.5 125q0 69 11.5 133t39 113.5t73.5 79t114 29.5q66 0 111 -29.5t72.5 -79t39 -113.5t11.5 -133q0 -62 -8.5 -125t-33.5 -115t-71 -84.5t-121 -32.5zM214 892h74l41 -119h-54z" />
    <glyph glyph-name="Otilde" unicode="&#xd5;" horiz-adv-x="575" 
d="M119 342q0 -18 1.5 -48t7.5 -64t17 -69t30 -63t47.5 -45.5t68.5 -17.5q41 0 69 17.5t46.5 45.5t28 63t14 69t5.5 64t1 48q0 57 -8.5 113t-28 100.5t-52 72t-80.5 27.5q-51 0 -83 -27.5t-51 -72t-26 -100.5t-7 -113zM289 -11q-74 0 -120.5 32.5t-72.5 84.5t-35.5 115
t-9.5 125q0 69 11.5 133t39 113.5t73.5 79t114 29.5q66 0 111 -29.5t72.5 -79t39 -113.5t11.5 -133q0 -62 -8.5 -125t-33.5 -115t-71 -84.5t-121 -32.5zM176 773q0 15 2.5 32.5t9 32.5t17.5 25t27 10q13 0 28 -8t30 -17q14 -9 26 -16.5t22 -7.5q8 0 13 5t7.5 11.5t3.5 14
t1 13.5h35q0 -12 -1.5 -29t-7.5 -32t-17.5 -25.5t-31.5 -10.5q-11 0 -25 6t-29 14q-17 10 -31 18t-21 8q-8 0 -12 -5.5t-6.5 -13t-3.5 -15t-1 -10.5h-35z" />
    <glyph glyph-name="Uacute" unicode="&#xda;" horiz-adv-x="593" 
d="M511 229q0 -45 -10.5 -88t-36 -77t-67 -54.5t-103.5 -20.5t-102.5 20.5t-64.5 54.5t-34 77t-10 88v461h62v-442q0 -23 2.5 -59t16.5 -70.5t45.5 -59t88.5 -24.5t87.5 24.5t44.5 59t16.5 70.5t2.5 59v442h62v-461zM311 892h74l-61 -119h-54z" />
    <glyph glyph-name="Ucircumflex" unicode="&#xdb;" horiz-adv-x="593" 
d="M511 229q0 -45 -10.5 -88t-36 -77t-67 -54.5t-103.5 -20.5t-102.5 20.5t-64.5 54.5t-34 77t-10 88v461h62v-442q0 -23 2.5 -59t16.5 -70.5t45.5 -59t88.5 -24.5t87.5 24.5t44.5 59t16.5 70.5t2.5 59v442h62v-461zM268 892h59l84 -119h-53l-59 75l-64 -75h-53z" />
    <glyph glyph-name="Udieresis" unicode="&#xdc;" horiz-adv-x="593" 
d="M511 229q0 -45 -10.5 -88t-36 -77t-67 -54.5t-103.5 -20.5t-102.5 20.5t-64.5 54.5t-34 77t-10 88v461h62v-442q0 -23 2.5 -59t16.5 -70.5t45.5 -59t88.5 -24.5t87.5 24.5t44.5 59t16.5 70.5t2.5 59v442h62v-461zM349 862h74v-78h-74v78zM185 862h74v-78h-74v78z" />
    <glyph glyph-name="Ugrave" unicode="&#xd9;" horiz-adv-x="593" 
d="M511 229q0 -45 -10.5 -88t-36 -77t-67 -54.5t-103.5 -20.5t-102.5 20.5t-64.5 54.5t-34 77t-10 88v461h62v-442q0 -23 2.5 -59t16.5 -70.5t45.5 -59t88.5 -24.5t87.5 24.5t44.5 59t16.5 70.5t2.5 59v442h62v-461zM223 892h74l41 -119h-54z" />
    <glyph glyph-name="Ydieresis" unicode="&#x178;" 
d="M207 317l-207 373h69l172 -314l176 314h65l-213 -373v-317h-62v317zM294 862h74v-78h-74v78zM130 862h74v-78h-74v78z" />
    <glyph glyph-name="aacute" unicode="&#xe1;" horiz-adv-x="445" 
d="M307 226q-17 0 -51.5 -2t-68.5 -12t-59.5 -32.5t-25.5 -62.5q0 -36 24 -57t59 -21q34 0 57.5 15.5t37.5 39.5t20.5 52t6.5 53v27zM307 74h-2q-4 -9 -14.5 -23t-28 -28t-41 -24t-53.5 -10q-29 0 -52.5 10t-40 27t-25.5 38.5t-9 45.5q0 34 15.5 62.5t48 49t83 32
t119.5 11.5v32q0 28 -1.5 55t-10.5 48.5t-29 34.5t-56 13q-29 0 -46 -8.5t-26.5 -21t-12.5 -28t-4 -30.5h-69q3 19 10.5 41.5t25 41.5t48.5 31.5t80 12.5q48 0 77 -14.5t44.5 -37.5t20 -52.5t4.5 -59.5v-323h-55v74zM237 678h74l-61 -119h-54z" />
    <glyph glyph-name="acircumflex" unicode="&#xe2;" horiz-adv-x="445" 
d="M307 226q-17 0 -51.5 -2t-68.5 -12t-59.5 -32.5t-25.5 -62.5q0 -36 24 -57t59 -21q34 0 57.5 15.5t37.5 39.5t20.5 52t6.5 53v27zM307 74h-2q-4 -9 -14.5 -23t-28 -28t-41 -24t-53.5 -10q-29 0 -52.5 10t-40 27t-25.5 38.5t-9 45.5q0 34 15.5 62.5t48 49t83 32
t119.5 11.5v32q0 28 -1.5 55t-10.5 48.5t-29 34.5t-56 13q-29 0 -46 -8.5t-26.5 -21t-12.5 -28t-4 -30.5h-69q3 19 10.5 41.5t25 41.5t48.5 31.5t80 12.5q48 0 77 -14.5t44.5 -37.5t20 -52.5t4.5 -59.5v-323h-55v74zM194 678h59l84 -119h-53l-59 75l-64 -75h-53z" />
    <glyph glyph-name="adieresis" unicode="&#xe4;" horiz-adv-x="445" 
d="M307 226q-17 0 -51.5 -2t-68.5 -12t-59.5 -32.5t-25.5 -62.5q0 -36 24 -57t59 -21q34 0 57.5 15.5t37.5 39.5t20.5 52t6.5 53v27zM307 74h-2q-4 -9 -14.5 -23t-28 -28t-41 -24t-53.5 -10q-29 0 -52.5 10t-40 27t-25.5 38.5t-9 45.5q0 34 15.5 62.5t48 49t83 32
t119.5 11.5v32q0 28 -1.5 55t-10.5 48.5t-29 34.5t-56 13q-29 0 -46 -8.5t-26.5 -21t-12.5 -28t-4 -30.5h-69q3 19 10.5 41.5t25 41.5t48.5 31.5t80 12.5q48 0 77 -14.5t44.5 -37.5t20 -52.5t4.5 -59.5v-323h-55v74zM275 648h74v-78h-74v78zM111 648h74v-78h-74v78z" />
    <glyph glyph-name="agrave" unicode="&#xe0;" horiz-adv-x="445" 
d="M307 226q-17 0 -51.5 -2t-68.5 -12t-59.5 -32.5t-25.5 -62.5q0 -36 24 -57t59 -21q34 0 57.5 15.5t37.5 39.5t20.5 52t6.5 53v27zM307 74h-2q-4 -9 -14.5 -23t-28 -28t-41 -24t-53.5 -10q-29 0 -52.5 10t-40 27t-25.5 38.5t-9 45.5q0 34 15.5 62.5t48 49t83 32
t119.5 11.5v32q0 28 -1.5 55t-10.5 48.5t-29 34.5t-56 13q-29 0 -46 -8.5t-26.5 -21t-12.5 -28t-4 -30.5h-69q3 19 10.5 41.5t25 41.5t48.5 31.5t80 12.5q48 0 77 -14.5t44.5 -37.5t20 -52.5t4.5 -59.5v-323h-55v74zM149 678h74l41 -119h-54z" />
    <glyph glyph-name="aring" unicode="&#xe5;" horiz-adv-x="445" 
d="M307 226q-17 0 -51.5 -2t-68.5 -12t-59.5 -32.5t-25.5 -62.5q0 -36 24 -57t59 -21q34 0 57.5 15.5t37.5 39.5t20.5 52t6.5 53v27zM307 74h-2q-4 -9 -14.5 -23t-28 -28t-41 -24t-53.5 -10q-29 0 -52.5 10t-40 27t-25.5 38.5t-9 45.5q0 34 15.5 62.5t48 49t83 32
t119.5 11.5v32q0 28 -1.5 55t-10.5 48.5t-29 34.5t-56 13q-29 0 -46 -8.5t-26.5 -21t-12.5 -28t-4 -30.5h-69q3 19 10.5 41.5t25 41.5t48.5 31.5t80 12.5q48 0 77 -14.5t44.5 -37.5t20 -52.5t4.5 -59.5v-323h-55v74zM163 618q0 -20 12.5 -33t31.5 -13q18 0 31.5 13t13.5 33
q0 19 -13 32t-32 13t-31.5 -13t-12.5 -32zM207 538q-32 0 -55 23.5t-23 56.5q0 32 23 55.5t55 23.5q33 0 56 -23.5t23 -55.5q0 -33 -23 -56.5t-56 -23.5z" />
    <glyph glyph-name="atilde" unicode="&#xe3;" horiz-adv-x="445" 
d="M307 226q-17 0 -51.5 -2t-68.5 -12t-59.5 -32.5t-25.5 -62.5q0 -36 24 -57t59 -21q34 0 57.5 15.5t37.5 39.5t20.5 52t6.5 53v27zM307 74h-2q-4 -9 -14.5 -23t-28 -28t-41 -24t-53.5 -10q-29 0 -52.5 10t-40 27t-25.5 38.5t-9 45.5q0 34 15.5 62.5t48 49t83 32
t119.5 11.5v32q0 28 -1.5 55t-10.5 48.5t-29 34.5t-56 13q-29 0 -46 -8.5t-26.5 -21t-12.5 -28t-4 -30.5h-69q3 19 10.5 41.5t25 41.5t48.5 31.5t80 12.5q48 0 77 -14.5t44.5 -37.5t20 -52.5t4.5 -59.5v-323h-55v74zM111 559q0 15 2.5 32.5t9 32.5t17.5 25t27 10q13 0 28 -8
t30 -17q14 -9 26 -16.5t22 -7.5q8 0 13 5t7.5 11.5t3.5 14t1 13.5h35q0 -12 -1.5 -29t-7.5 -32t-17.5 -25.5t-31.5 -10.5q-11 0 -25 6t-29 14q-17 10 -31 18t-21 8q-8 0 -12 -5.5t-6.5 -13t-3.5 -15t-1 -10.5h-35z" />
    <glyph glyph-name="eacute" unicode="&#xe9;" horiz-adv-x="431" 
d="M327 336q0 14 -3.5 33t-14.5 36.5t-31.5 30t-55.5 12.5t-56 -12.5t-33 -30.5t-16.5 -37t-5.5 -32h216zM379 0q-23 -6 -48.5 -8.5t-51.5 -2.5q-117 0 -175 66.5t-58 194.5q0 52 10 95.5t32 75t57 49t85 17.5q30 0 58.5 -9.5t50.5 -31.5t35.5 -58.5t13.5 -90.5h-281
q0 -86 20 -138.5t49 -81t61 -38t56 -9.5q22 0 44.5 2.5t41.5 9.5v-42zM230 678h74l-61 -119h-54z" />
    <glyph glyph-name="ecircumflex" unicode="&#xea;" horiz-adv-x="431" 
d="M327 336q0 14 -3.5 33t-14.5 36.5t-31.5 30t-55.5 12.5t-56 -12.5t-33 -30.5t-16.5 -37t-5.5 -32h216zM379 0q-23 -6 -48.5 -8.5t-51.5 -2.5q-117 0 -175 66.5t-58 194.5q0 52 10 95.5t32 75t57 49t85 17.5q30 0 58.5 -9.5t50.5 -31.5t35.5 -58.5t13.5 -90.5h-281
q0 -86 20 -138.5t49 -81t61 -38t56 -9.5q22 0 44.5 2.5t41.5 9.5v-42zM187 678h59l84 -119h-53l-59 75l-64 -75h-53z" />
    <glyph glyph-name="edieresis" unicode="&#xeb;" horiz-adv-x="431" 
d="M327 336q0 14 -3.5 33t-14.5 36.5t-31.5 30t-55.5 12.5t-56 -12.5t-33 -30.5t-16.5 -37t-5.5 -32h216zM379 0q-23 -6 -48.5 -8.5t-51.5 -2.5q-117 0 -175 66.5t-58 194.5q0 52 10 95.5t32 75t57 49t85 17.5q30 0 58.5 -9.5t50.5 -31.5t35.5 -58.5t13.5 -90.5h-281
q0 -86 20 -138.5t49 -81t61 -38t56 -9.5q22 0 44.5 2.5t41.5 9.5v-42zM268 648h74v-78h-74v78zM104 648h74v-78h-74v78z" />
    <glyph glyph-name="egrave" unicode="&#xe8;" horiz-adv-x="431" 
d="M327 336q0 14 -3.5 33t-14.5 36.5t-31.5 30t-55.5 12.5t-56 -12.5t-33 -30.5t-16.5 -37t-5.5 -32h216zM379 0q-23 -6 -48.5 -8.5t-51.5 -2.5q-117 0 -175 66.5t-58 194.5q0 52 10 95.5t32 75t57 49t85 17.5q30 0 58.5 -9.5t50.5 -31.5t35.5 -58.5t13.5 -90.5h-281
q0 -86 20 -138.5t49 -81t61 -38t56 -9.5q22 0 44.5 2.5t41.5 9.5v-42zM142 678h74l41 -119h-54z" />
    <glyph glyph-name="iacute" unicode="&#xed;" horiz-adv-x="222" 
d="M84 476h55v-476h-55v476zM127 678h74l-61 -119h-54z" />
    <glyph glyph-name="icircumflex" unicode="&#xee;" horiz-adv-x="222" 
d="M84 476h55v-476h-55v476zM74 678h59l84 -119h-53l-59 75l-64 -75h-53z" />
    <glyph glyph-name="idieresis" unicode="&#xef;" horiz-adv-x="222" 
d="M84 476h55v-476h-55v476zM155 648h74v-78h-74v78zM-9 648h74v-78h-74v78z" />
    <glyph glyph-name="igrave" unicode="&#xec;" horiz-adv-x="222" 
d="M84 476h55v-476h-55v476zM39 678h74l41 -119h-54z" />
    <glyph glyph-name="ntilde" unicode="&#xf1;" horiz-adv-x="501" 
d="M138 346h2q4 13 15.5 36.5t31 47t47 40.5t64.5 17q41 0 65 -15.5t36 -39t15.5 -50.5t3.5 -50v-332h-55v318q0 22 -2 43t-9.5 38t-22.5 27.5t-41 10.5q-37 0 -65 -27t-47 -63t-28.5 -73.5t-9.5 -58.5v-215h-55v476h55v-130zM129 559q0 15 2.5 32.5t9 32.5t17.5 25t27 10
q13 0 28 -8t30 -17q14 -9 26 -16.5t22 -7.5q8 0 13 5t7.5 11.5t3.5 14t1 13.5h35q0 -12 -1.5 -29t-7.5 -32t-17.5 -25.5t-31.5 -10.5q-11 0 -25 6t-29 14q-17 10 -31 18t-21 8q-8 0 -12 -5.5t-6.5 -13t-3.5 -15t-1 -10.5h-35z" />
    <glyph glyph-name="oacute" unicode="&#xf3;" 
d="M107 250q0 -45 6.5 -85.5t22.5 -70.5t41.5 -48t63.5 -18q39 0 65 16.5t41.5 44.5t22 64.5t6.5 75.5q0 43 -6.5 82.5t-22.5 70t-42.5 48.5t-66.5 18q-39 0 -64 -18t-40 -46.5t-21 -64t-6 -69.5zM242 -11q-51 0 -88 18.5t-61 52t-35.5 80t-11.5 101.5q0 53 12 98t36 78
t60 51.5t84 18.5q97 0 148 -67.5t51 -187.5q0 -53 -12 -97.5t-36 -77t-60.5 -50.5t-86.5 -18zM256 678h74l-61 -119h-54z" />
    <glyph glyph-name="ocircumflex" unicode="&#xf4;" 
d="M107 250q0 -45 6.5 -85.5t22.5 -70.5t41.5 -48t63.5 -18q39 0 65 16.5t41.5 44.5t22 64.5t6.5 75.5q0 43 -6.5 82.5t-22.5 70t-42.5 48.5t-66.5 18q-39 0 -64 -18t-40 -46.5t-21 -64t-6 -69.5zM242 -11q-51 0 -88 18.5t-61 52t-35.5 80t-11.5 101.5q0 53 12 98t36 78
t60 51.5t84 18.5q97 0 148 -67.5t51 -187.5q0 -53 -12 -97.5t-36 -77t-60.5 -50.5t-86.5 -18zM213 678h59l84 -119h-53l-59 75l-64 -75h-53z" />
    <glyph glyph-name="odieresis" unicode="&#xf6;" 
d="M107 250q0 -45 6.5 -85.5t22.5 -70.5t41.5 -48t63.5 -18q39 0 65 16.5t41.5 44.5t22 64.5t6.5 75.5q0 43 -6.5 82.5t-22.5 70t-42.5 48.5t-66.5 18q-39 0 -64 -18t-40 -46.5t-21 -64t-6 -69.5zM242 -11q-51 0 -88 18.5t-61 52t-35.5 80t-11.5 101.5q0 53 12 98t36 78
t60 51.5t84 18.5q97 0 148 -67.5t51 -187.5q0 -53 -12 -97.5t-36 -77t-60.5 -50.5t-86.5 -18zM294 648h74v-78h-74v78zM130 648h74v-78h-74v78z" />
    <glyph glyph-name="ograve" unicode="&#xf2;" 
d="M107 250q0 -45 6.5 -85.5t22.5 -70.5t41.5 -48t63.5 -18q39 0 65 16.5t41.5 44.5t22 64.5t6.5 75.5q0 43 -6.5 82.5t-22.5 70t-42.5 48.5t-66.5 18q-39 0 -64 -18t-40 -46.5t-21 -64t-6 -69.5zM242 -11q-51 0 -88 18.5t-61 52t-35.5 80t-11.5 101.5q0 53 12 98t36 78
t60 51.5t84 18.5q97 0 148 -67.5t51 -187.5q0 -53 -12 -97.5t-36 -77t-60.5 -50.5t-86.5 -18zM168 678h74l41 -119h-54z" />
    <glyph glyph-name="otilde" unicode="&#xf5;" 
d="M107 250q0 -45 6.5 -85.5t22.5 -70.5t41.5 -48t63.5 -18q39 0 65 16.5t41.5 44.5t22 64.5t6.5 75.5q0 43 -6.5 82.5t-22.5 70t-42.5 48.5t-66.5 18q-39 0 -64 -18t-40 -46.5t-21 -64t-6 -69.5zM242 -11q-51 0 -88 18.5t-61 52t-35.5 80t-11.5 101.5q0 53 12 98t36 78
t60 51.5t84 18.5q97 0 148 -67.5t51 -187.5q0 -53 -12 -97.5t-36 -77t-60.5 -50.5t-86.5 -18zM130 559q0 15 2.5 32.5t9 32.5t17.5 25t27 10q13 0 28 -8t30 -17q14 -9 26 -16.5t22 -7.5q8 0 13 5t7.5 11.5t3.5 14t1 13.5h35q0 -12 -1.5 -29t-7.5 -32t-17.5 -25.5
t-31.5 -10.5q-11 0 -25 6t-29 14q-17 10 -31 18t-21 8q-8 0 -12 -5.5t-6.5 -13t-3.5 -15t-1 -10.5h-35z" />
    <glyph glyph-name="uacute" unicode="&#xfa;" horiz-adv-x="501" 
d="M360 118h-2q-4 -12 -13 -33.5t-25.5 -43t-41 -37t-59.5 -15.5q-46 0 -73.5 15.5t-42.5 38.5t-19.5 50.5t-4.5 50.5v332h55v-319q0 -55 21 -86.5t59 -31.5q39 0 66.5 21.5t45 54.5t26 72t8.5 74v215h55v-476h-55v118zM265 678h74l-61 -119h-54z" />
    <glyph glyph-name="ucircumflex" unicode="&#xfb;" horiz-adv-x="501" 
d="M360 118h-2q-4 -12 -13 -33.5t-25.5 -43t-41 -37t-59.5 -15.5q-46 0 -73.5 15.5t-42.5 38.5t-19.5 50.5t-4.5 50.5v332h55v-319q0 -55 21 -86.5t59 -31.5q39 0 66.5 21.5t45 54.5t26 72t8.5 74v215h55v-476h-55v118zM212 678h59l84 -119h-53l-59 75l-64 -75h-53z" />
    <glyph glyph-name="udieresis" unicode="&#xfc;" horiz-adv-x="501" 
d="M360 118h-2q-4 -12 -13 -33.5t-25.5 -43t-41 -37t-59.5 -15.5q-46 0 -73.5 15.5t-42.5 38.5t-19.5 50.5t-4.5 50.5v332h55v-319q0 -55 21 -86.5t59 -31.5q39 0 66.5 21.5t45 54.5t26 72t8.5 74v215h55v-476h-55v118zM293 648h74v-78h-74v78zM129 648h74v-78h-74v78z" />
    <glyph glyph-name="ugrave" unicode="&#xf9;" horiz-adv-x="501" 
d="M360 118h-2q-4 -12 -13 -33.5t-25.5 -43t-41 -37t-59.5 -15.5q-46 0 -73.5 15.5t-42.5 38.5t-19.5 50.5t-4.5 50.5v332h55v-319q0 -55 21 -86.5t59 -31.5q39 0 66.5 21.5t45 54.5t26 72t8.5 74v215h55v-476h-55v118zM177 678h74l41 -119h-54z" />
    <glyph glyph-name="ydieresis" unicode="&#xff;" horiz-adv-x="426" 
d="M201 5l-190 471h59l160 -394l133 394h53l-228 -661h-50zM266 648h74v-78h-74v78zM102 648h74v-78h-74v78z" />
    <glyph glyph-name="exclam" unicode="!" horiz-adv-x="260" 
d="M127 80h80v-80h-80v80zM131 690h72l-11 -511h-50z" />
    <glyph glyph-name="quotedbl" unicode="&#x22;" horiz-adv-x="315" 
d="M186 690h72l-15 -206h-42zM57 690h72l-15 -206h-42z" />
    <glyph glyph-name="Lslash" unicode="&#x141;" horiz-adv-x="389" 
d="M88 290l-88 -76v57l88 76v343h62v-289l123 107v-56l-123 -108v-296h243v-48h-305v290z" />
    <glyph glyph-name="lslash" unicode="&#x142;" horiz-adv-x="222" 
d="M83 325l-83 -73v54l83 72v312h55v-264l85 72v-52l-85 -73v-373h-55v325z" />
    <glyph glyph-name="threequarters" unicode="&#xbe;" horiz-adv-x="779" 
d="M534 170h109v176h-2zM643 125h-165v40l166 268h51v-263h72v-45h-72v-125h-52v125zM476 634h47l-196 -634h-49zM35 545q1 11 6.5 28t19 33t36 27.5t57.5 11.5q55 0 88.5 -30t33.5 -87q0 -22 -5.5 -38.5t-14 -28t-19 -19t-20.5 -11.5q24 -8 45 -33t21 -73q0 -37 -11.5 -61
t-29.5 -38.5t-41 -20.5t-46 -6q-39 0 -63.5 11.5t-38.5 27.5t-19 33.5t-5 29.5h60q0 -8 2 -18.5t8.5 -20.5t19.5 -16.5t35 -6.5q32 0 53 19.5t21 61.5q0 28 -7 45.5t-19 27t-29 12.5t-37 3v44q41 0 63 14.5t22 58.5q0 14 -4 28.5t-12 26t-21 18.5t-31 7q-17 0 -27.5 -6
t-17 -15t-9.5 -19.5t-4 -19.5h-60z" />
    <glyph glyph-name="onequarter" unicode="&#xbc;" horiz-adv-x="779" 
d="M140 574l-76 -54v55l87 59h41v-429h-52v369zM428 634h47l-196 -634h-48zM509 170h109v176h-2zM618 125h-165v40l166 268h51v-263h72v-45h-72v-125h-52v125z" />
    <glyph glyph-name="onesuperior" unicode="&#xb9;" horiz-adv-x="334" 
d="M165 574l-76 -54v55l87 59h41v-429h-52v369z" />
    <glyph glyph-name="multiply" unicode="&#xd7;" horiz-adv-x="575" 
d="M58 34l190 194l-189 193l42 45l187 -195l187 195l36 -38l-188 -194l194 -196l-42 -41l-192 195l-190 -195z" />
    <glyph glyph-name="Thorn" unicode="&#xde;" horiz-adv-x="556" 
d="M146 218h131q27 0 56.5 2t54.5 15.5t41 41.5t16 81q0 52 -16 82t-41 44t-54.5 17.5t-56.5 3.5h-131v-287zM84 690h62v-139h166q36 0 72 -7t64.5 -28t46.5 -58.5t18 -97.5q0 -62 -18 -99.5t-46.5 -57t-64.5 -25.5t-72 -6h-166v-172h-62v690z" />
    <glyph glyph-name="brokenbar" unicode="&#xa6;" horiz-adv-x="241" 
d="M93 761h55v-359h-55v359zM93 223h55v-359h-55v359z" />
    <glyph glyph-name="Eth" unicode="&#xd0;" horiz-adv-x="574" 
d="M150 48h50q63 0 110.5 13.5t80 47t48.5 91t16 145.5q0 91 -16 149t-48.5 91.5t-80 46t-110.5 12.5h-50v-257h158v-46h-158v-293zM88 341h-88v46h88v303h124q76 0 134 -17.5t97.5 -58t59.5 -106.5t20 -163q0 -99 -20 -165t-59.5 -106t-97.5 -57t-134 -17h-124v341z" />
    <glyph glyph-name="onehalf" unicode="&#xbd;" horiz-adv-x="779" 
d="M466 42q5 4 20.5 19t36 37.5t43.5 50.5t42 58.5t31.5 62t12.5 60.5q0 32 -18 51t-48 19q-20 0 -32 -7.5t-18 -19t-8.5 -23.5t-3.5 -21h-60q2 16 8 35.5t19.5 36.5t37 28t60.5 11q53 0 85.5 -31t32.5 -89q0 -43 -19 -83.5t-46 -76t-56.5 -65t-51.5 -50.5h181v-45h-249v42z
M145 574l-76 -54v55l87 59h41v-429h-52v369zM422 634h47l-196 -634h-49z" />
    <glyph glyph-name="minus" unicode="&#x2212;" horiz-adv-x="575" 
d="M60 262h455v-50h-455v50z" />
    <glyph glyph-name="eth" unicode="&#xf0;" 
d="M107 248q0 -39 6 -78.5t21 -71t41 -51t67 -19.5q39 0 64.5 18.5t41 48t21.5 66t6 71.5q0 38 -6.5 76.5t-22 69.5t-42 50.5t-66.5 19.5q-39 0 -64.5 -19t-40.5 -48.5t-20.5 -65t-5.5 -67.5zM289 576q22 -19 47.5 -48t47.5 -70.5t37 -97.5t15 -129q0 -51 -11 -95.5t-35 -77
t-60.5 -51t-87.5 -18.5q-54 0 -91.5 21t-60.5 55.5t-33.5 80t-10.5 95.5q0 58 14 104t38 77.5t57.5 48t72.5 16.5q21 0 37.5 -5t29.5 -12t21 -14t13 -11l2 2q-19 28 -40.5 56.5t-53.5 51.5l-83 -37l-16 37l61 26q-29 20 -52 31.5t-50 19.5v3h110q11 -8 24 -16t19 -15l80 36
l16 -38z" />
    <glyph glyph-name="thorn" unicode="&#xfe;" horiz-adv-x="463" 
d="M124 245q0 -35 5 -73.5t18 -70.5t35.5 -52.5t58.5 -20.5q34 0 57.5 19.5t37.5 50t20 68.5t6 75q0 34 -6 70.5t-20 67t-38 50t-61 19.5q-33 0 -55 -20t-35 -50t-18 -65.5t-5 -67.5zM69 690h55v-274h2q5 9 14.5 21t24 23t35 19t47.5 8q46 0 79.5 -21t55 -55.5t31.5 -79.5
t10 -94q0 -48 -10.5 -92.5t-33 -79t-56.5 -55.5t-81 -21q-27 0 -47 7.5t-33.5 18t-22.5 22t-13 20.5h-2v-271h-55v904z" />
    <glyph glyph-name="twosuperior" unicode="&#xb2;" horiz-adv-x="334" 
d="M42 247q5 4 20.5 19t36 37.5t43.5 50.5t42 58.5t31.5 62t12.5 60.5q0 32 -18 51t-48 19q-20 0 -32 -7.5t-18 -18.5t-8.5 -23.5t-3.5 -21.5h-60q2 16 8 35.5t19.5 36.5t37 28t60.5 11q53 0 85.5 -31t32.5 -89q0 -43 -19 -83.5t-46 -76t-56.5 -65t-51.5 -50.5h181v-45h-249
v42z" />
    <glyph glyph-name="threesuperior" unicode="&#xb3;" horiz-adv-x="333" 
d="M35 545q1 11 6.5 28t19 33t36 27.5t57.5 11.5q55 0 88.5 -30t33.5 -87q0 -22 -5.5 -38.5t-14 -28t-19 -19t-20.5 -11.5q24 -8 45 -33t21 -73q0 -37 -11.5 -61t-29.5 -38.5t-41 -20.5t-46 -6q-39 0 -63.5 11.5t-38.5 27.5t-19 33.5t-5 29.5h60q0 -8 2 -18.5t8.5 -20.5
t19.5 -16.5t35 -6.5q32 0 53 19.5t21 61.5q0 28 -7 45.5t-19 27t-29 12.5t-37 3v44q41 0 63 14.5t22 58.5q0 14 -4 28.5t-12 26t-21 18.5t-31 7q-17 0 -27.5 -6t-17 -15t-9.5 -19.5t-4 -19.5h-60z" />
    <glyph glyph-name="Scaron" unicode="&#x160;" horiz-adv-x="463" 
d="M385 616q-25 11 -65 25t-87 14q-62 0 -97.5 -31.5t-35.5 -80.5q0 -38 15.5 -61.5t43 -42.5t66.5 -37.5t86 -46.5q25 -15 46 -30.5t36 -35.5t23.5 -46t8.5 -62q0 -52 -19.5 -88.5t-51.5 -59.5t-73.5 -33.5t-84.5 -10.5q-27 0 -52.5 2t-45.5 4.5t-34.5 5t-20.5 4.5v71
q9 -5 25.5 -11.5t37 -12.5t44.5 -10.5t50 -4.5q32 0 60.5 8t50 24.5t34 42.5t12.5 62q0 33 -12 55.5t-32 40t-45 30.5t-51 27q-35 19 -67 36.5t-57 40t-39.5 52.5t-14.5 74q0 78 55 124.5t154 46.5q45 0 79.5 -5.5t57.5 -10.5v-69zM117 892h53l60 -75l63 75h53l-86 -119h-59
z" />
    <glyph glyph-name="Yacute" unicode="&#xdd;" 
d="M207 317l-207 373h69l172 -314l176 314h65l-213 -373v-317h-62v317zM256 892h74l-61 -119h-54z" />
    <glyph glyph-name="Zcaron" unicode="&#x17d;" 
d="M28 48l338 596h-321v46h395v-46l-340 -596h354v-48h-426v48zM127 892h53l60 -75l63 75h53l-86 -119h-59z" />
    <glyph glyph-name="scaron" unicode="&#x161;" horiz-adv-x="352" 
d="M304 411q-7 3 -19.5 9t-28.5 11.5t-35 10t-40 4.5q-38 0 -65.5 -15.5t-27.5 -51.5q0 -21 8 -34.5t22 -23.5t33 -19t41 -20q25 -12 50.5 -23.5t46 -28t33.5 -40t13 -59.5q0 -25 -7.5 -50t-27.5 -45.5t-54 -33.5t-87 -13q-51 0 -83 6.5t-49 14.5v61q4 -3 17.5 -9t32 -12
t41.5 -10.5t46 -4.5q51 0 80.5 21t29.5 66q0 26 -12.5 43t-35 30.5t-53 27t-67.5 31.5q-28 15 -51 42t-23 68q0 34 13 57.5t34.5 38t50.5 21t62 6.5q37 0 66.5 -7t45.5 -10v-59zM62 678h53l60 -75l63 75h53l-86 -119h-59z" />
    <glyph glyph-name="yacute" unicode="&#xfd;" horiz-adv-x="426" 
d="M201 5l-190 471h59l160 -394l133 394h53l-228 -661h-50zM228 678h74l-61 -119h-54z" />
    <glyph glyph-name="zcaron" unicode="&#x17e;" horiz-adv-x="389" 
d="M27 42l261 393h-242v41h315v-28l-267 -407h268v-41h-335v42zM80 678h53l60 -75l63 75h53l-86 -119h-59z" />
  </font>
</defs>
</svg>
