<?xml version="1.0" standalone="no"?>
<!DOCTYPE svg PUBLIC "-//W3C//DTD SVG 1.1//EN" "http://www.w3.org/Graphics/SVG/1.1/DTD/svg11.dtd" >
<svg xmlns="http://www.w3.org/2000/svg">
<metadata></metadata>
<defs>
<font id="sexsmithregular" horiz-adv-x="798" >
<font-face units-per-em="2048" ascent="1481" descent="-567" />
<missing-glyph horiz-adv-x="419" />
<glyph horiz-adv-x="2048" />
<glyph horiz-adv-x="2048" />
<glyph unicode="&#xd;" horiz-adv-x="2048" />
<glyph unicode=" "  horiz-adv-x="419" />
<glyph unicode="&#x09;" horiz-adv-x="419" />
<glyph unicode="&#xa0;" horiz-adv-x="419" />
<glyph unicode="!" horiz-adv-x="378" d="M74 1419q0 63 34 107.5t89 44.5q53 0 83.5 -42.5t30.5 -105.5q0 -174 -22.5 -333t-45 -314t-22.5 -319l-51 -4v4q0 164 -24 319.5t-48 313.5t-24 329zM90 154q0 57 30 104t77 47q51 0 80.5 -46t29.5 -105q0 -62 -31 -108t-79 -46q-46 0 -76.5 46t-30.5 108z" />
<glyph unicode="&#x22;" horiz-adv-x="430" d="M45 1546q0 117 74 117t74 -113q0 -26 -11 -71q-28 -200 -32 -359h-66q0 135 -31 359q-8 33 -8 67zM246 1546q0 117 71 117q74 0 74 -113q0 -5 -8 -71q-30 -187 -35 -359h-63q0 121 -33 359q-6 37 -6 67z" />
<glyph unicode="#" horiz-adv-x="1038" d="M55 391v178h217l64 432h-203v179h234l53 385h106l-57 -385h236l61 385h102l-57 -385h178v-179h-209l-65 -432h196v-178h-221l-65 -391h-99l60 391h-238l-61 -391h-105l64 391h-191zM373 567h239l70 439h-242z" />
<glyph unicode="$" horiz-adv-x="684" d="M4 483l68 21q21 -67 83.5 -113.5t139.5 -46.5q75 0 116.5 42.5t41.5 105.5q0 50 -22 93.5t-57 75.5t-77.5 63t-85 63.5t-77.5 69t-57 87t-22 109.5q0 99 63.5 163t170.5 76v273h82v-273q81 -12 135 -73v53h78v-268h-78q0 196 -154 196q-55 0 -89 -29t-34 -88 q0 -49 23.5 -86t60.5 -61.5t82 -47.5t90 -51.5t82 -65.5t60.5 -97t23.5 -139q0 -119 -80 -194.5t-200 -88.5v-252h-82v250q-113 8 -192.5 71.5t-92.5 161.5z" />
<glyph unicode="%" horiz-adv-x="1101" d="M66 1305q0 154 65 218t180 64t180.5 -64t65.5 -218q0 -155 -66.5 -224t-179.5 -69q-245 0 -245 293zM156 0l716 1565h109l-721 -1565h-104zM170 1296q0 -211 141 -211q75 0 108.5 57.5t33.5 153.5q0 61 -12 107t-45 78t-85 32t-84.5 -32t-44.5 -78t-12 -107zM561 279 q0 161 66 225.5t186 64.5t186 -64.5t66 -225.5q0 -302 -252 -302q-118 0 -185 69.5t-67 232.5zM666 270q0 -99 35 -158t112 -59t112.5 59.5t35.5 157.5q0 100 -35.5 163t-112.5 63t-112 -63t-35 -163z" />
<glyph unicode="&#x26;" horiz-adv-x="759" d="M23 391q0 153 57.5 304t134.5 231q-96 247 -96 413q0 113 50 180.5t140 67.5q102 0 154.5 -75.5t52.5 -180.5q0 -137 -47 -271.5t-135 -219.5q128 -314 231 -493.5t207 -244.5v-96q-102 34 -217 180q-29 -93 -89.5 -143.5t-139.5 -50.5q-95 0 -165.5 58t-104 147 t-33.5 194zM190 420q0 -140 44 -237t112 -97q62 0 107 37t69 104q-142 234 -252 535q-30 -47 -55 -149t-25 -193zM205 1337q0 -88 14.5 -161.5t50.5 -188.5q58 58 95.5 150t37.5 194q0 80 -28.5 126t-79.5 46q-43 0 -66.5 -47t-23.5 -119z" />
<glyph unicode="'" horiz-adv-x="247" d="M45 1546q0 117 74 117t74 -113q0 -26 -11 -71q-28 -200 -32 -359h-66q0 135 -31 359q-8 33 -8 67z" />
<glyph unicode="(" horiz-adv-x="585" d="M117 530q0 506 96.5 796t306.5 376v-127q-94 -44 -147.5 -157.5t-78 -326.5t-24.5 -567q0 -234 20 -409.5t57 -283t78.5 -169t94.5 -96.5v-123q-190 59 -296.5 331.5t-106.5 755.5z" />
<glyph unicode=")" horiz-adv-x="585" d="M117 -430q93 46 146.5 158t78.5 325t25 568q0 188 -14 340t-36.5 253t-56 177t-67.5 118.5t-76 71.5v121q188 -54 295.5 -330.5t107.5 -757.5q0 -506 -96.5 -795.5t-306.5 -375.5v127z" />
<glyph unicode="*" horiz-adv-x="526" d="M37 1432q0 65 63 65q15 0 32 -12.5t40 -40.5t37.5 -48t42.5 -61q-1 4 -9.5 32.5t-15.5 54t-13.5 55.5t-6.5 45q0 65 61 65q64 0 64 -65q0 -26 -23.5 -100t-23.5 -81q45 74 79.5 115t63.5 41q64 0 64 -65q0 -62 -185 -117l-18 -6q18 -8 51.5 -20.5t55 -21.5t45 -22 t35 -28.5t11.5 -34.5q0 -66 -61 -66q-18 0 -36.5 18t-54.5 66.5t-50 65.5q0 -2 21.5 -75.5t21.5 -92.5q0 -68 -64 -68q-65 0 -65 68q0 23 25.5 95t25.5 81q-72 -105 -98 -130q-28 -28 -50 -28q-61 0 -61 66q0 23 21 42.5t45 30.5t67 27.5t64 26.5q-11 4 -37 12.5t-40 13.5 t-36.5 13.5t-35.5 16.5t-26.5 18.5t-19.5 22.5t-6 26z" />
<glyph unicode="+" horiz-adv-x="479" d="M16 754v98h177v215h79v-215h174v-98h-174v-209h-79v209h-177z" />
<glyph unicode="," horiz-adv-x="284" d="M39 154q0 66 30.5 107.5t77.5 41.5t78 -42.5t31 -108.5q0 -58 -21.5 -132.5t-61 -133t-81.5 -58.5l-12 43q91 40 94 135q-30 -10 -43 -10q-39 0 -65.5 45t-26.5 113z" />
<glyph unicode="-" horiz-adv-x="563" d="M41 485v121h479v-121h-479z" />
<glyph unicode="." horiz-adv-x="307" d="M43 154q0 56 31 103.5t78 47.5q51 0 79.5 -46t28.5 -105q0 -62 -31 -108t-77 -46q-48 0 -78.5 46t-30.5 108z" />
<glyph unicode="/" horiz-adv-x="591" d="M35 0l430 1565h108l-434 -1565h-104z" />
<glyph unicode="0" d="M43 721q0 866 356 866q125 0 205 -75t121 -244.5t41 -442.5q0 -848 -385 -848q-84 0 -143.5 33.5t-105 115.5t-67.5 229.5t-22 365.5zM219 750q0 -85 1 -145t3.5 -129.5t8 -116.5t14.5 -96.5t22.5 -81t31.5 -57.5t43 -38t56 -12q189 0 189 704q0 82 -1 141.5t-4 131 t-8.5 122.5t-15 104.5t-23.5 89.5t-33 66t-45.5 44t-58.5 14q-180 0 -180 -741z" />
<glyph unicode="1" horiz-adv-x="423" d="M4 1294v95q93 1 144.5 54t56.5 122h84v-1354q0 -48 16.5 -81.5t46.5 -33.5h43v-96h-372v96h47q38 0 49.5 29.5t11.5 85.5v1083h-127z" />
<glyph unicode="2" horiz-adv-x="645" d="M47 2v168q0 115 21.5 210t55.5 160.5t75 124.5t82.5 115t75.5 117.5t55.5 147t21.5 188.5q0 122 -37.5 190t-99.5 68q-104 0 -107 -61q76 -43 76 -146q0 -61 -31 -105t-77 -44q-49 0 -80 47.5t-31 117.5q0 132 70.5 209.5t197.5 77.5q126 0 198.5 -87t72.5 -249 q0 -107 -22 -200t-57 -160t-77 -128.5t-84 -118.5t-77 -116t-57 -135.5t-22 -163.5v-39h308q47 0 47 86v29h61v-303h-559z" />
<glyph unicode="3" horiz-adv-x="630" d="M39 197h53q37 -123 187 -123q26 0 48 17t42.5 55t32.5 111.5t12 174.5q0 162 -30 263.5t-93 101.5h-76v104h78q108 0 108 285q0 73 -7 129.5t-17.5 89t-25 52.5t-27.5 27t-27 7q-100 0 -100 -61q75 -34 75 -146q0 -67 -34.5 -118.5t-75.5 -51.5q-50 0 -79.5 54.5 t-29.5 109.5q0 137 67.5 223t176.5 86q118 0 190 -95t72 -280q0 -110 -18.5 -182.5t-44.5 -108.5t-74 -77q74 -39 122 -139.5t48 -258.5q0 -127 -37.5 -233t-109.5 -171t-166 -65q-101 0 -170.5 71.5t-69.5 148.5z" />
<glyph unicode="4" horiz-adv-x="614" d="M14 414v100l191 1051h143l-192 -1061h227v676h113v-676h102v-90h-102v-203q0 -50 15 -82.5t48 -32.5h43v-96h-328v96h48q38 0 49.5 29.5t11.5 85.5v203h-369z" />
<glyph unicode="5" horiz-adv-x="618" d="M25 236h47q12 -66 76 -114t135 -48q24 0 46.5 21t43.5 66.5t34 132t13 202.5q0 189 -46 288t-122 99q-29 0 -65 -16t-66 -46l-66 53l23 693h446v-316h-61q0 127 -43 127h-266l-23 -475q71 53 162 53q138 0 220.5 -102t82.5 -324q0 -264 -88.5 -408.5t-224.5 -144.5 q-190 0 -258 259z" />
<glyph unicode="6" horiz-adv-x="647" d="M37 553q0 218 59 437t165 380t231 201l10 -58q-136 -47 -215 -249.5t-90 -524.5q56 131 174 131q112 0 178.5 -110t66.5 -314q0 -125 -34.5 -232t-99 -172t-146.5 -65q-136 0 -217.5 160t-81.5 416zM197 451q0 -180 35.5 -278.5t103.5 -98.5q32 0 53.5 28.5t36 114.5 t14.5 232q0 325 -112 325q-79 0 -131 -98v-225z" />
<glyph unicode="7" horiz-adv-x="559" d="M16 1262v303h549q-158 -454 -224.5 -788.5t-66.5 -624.5q0 -76 -22 -120t-64 -44q-48 0 -73 44t-25 120q0 107 18.5 222.5t44.5 214t77.5 236.5t93.5 239t116 274q13 29 19 44h-324q-49 0 -49 -120h-70z" />
<glyph unicode="8" horiz-adv-x="657" d="M25 461q0 130 41.5 256.5t109.5 175.5q-53 53 -74.5 129.5t-21.5 196.5q0 174 61 271t187 97t186.5 -97t60.5 -271q0 -140 -20 -203t-76 -123q66 -48 109 -176.5t43 -255.5q0 -231 -82 -357.5t-221 -126.5q-137 0 -220 127t-83 357zM201 465q0 -106 4.5 -172.5t18 -119.5 t39 -76t65.5 -23q78 0 101.5 85t23.5 306q0 106 -11.5 184t-30.5 120t-40 61.5t-45 19.5q-55 0 -90 -92t-35 -293zM236 1214q0 -118 12.5 -181t31 -80t50.5 -17q33 0 51 17t29.5 79.5t11.5 181.5q0 117 -12.5 182.5t-31.5 86t-50 20.5q-30 0 -49 -20t-31 -86t-12 -183z" />
<glyph unicode="9" horiz-adv-x="657" d="M39 1096q0 141 35 253t98.5 175t144.5 63q139 0 220 -159t81 -416q0 -253 -48 -469t-140 -362.5t-213 -186.5l-8 57q134 86 186 242t64 485q-58 -131 -174 -131q-110 0 -178 121t-68 328zM215 1118q0 -348 113 -348q79 0 131 98v248q0 178 -37.5 289t-104.5 111 q-102 0 -102 -398z" />
<glyph unicode=":" horiz-adv-x="331" d="M66 154q0 56 31.5 103.5t78.5 47.5q48 0 79.5 -47t31.5 -104q0 -62 -31.5 -108t-79.5 -46q-46 0 -78 46.5t-32 107.5zM66 739q0 59 32 105.5t78 46.5q48 0 79.5 -46t31.5 -106q0 -59 -31.5 -105t-79.5 -46q-46 0 -78 46t-32 105z" />
<glyph unicode=";" horiz-adv-x="333" d="M70 154q0 65 30.5 107t75.5 42q49 0 80 -42.5t31 -108.5q0 -58 -22 -132.5t-62 -133t-82 -58.5l-10 43q91 42 94 135q-30 -10 -43 -10q-41 0 -66.5 46t-25.5 112zM70 739q0 62 30 107t76 45q48 0 79.5 -46t31.5 -106q0 -59 -31.5 -105t-79.5 -46q-46 0 -76 44.5 t-30 106.5z" />
<glyph unicode="&#x3c;" horiz-adv-x="765" d="M59 760v110l635 217v-112l-501 -162l501 -166v-112z" />
<glyph unicode="=" horiz-adv-x="354" d="M37 547v131h538v-131h-538zM37 915v125h538v-125h-538z" />
<glyph unicode="&#x3e;" horiz-adv-x="765" d="M66 535v112l501 166l-501 162v112l634 -217v-110z" />
<glyph unicode="?" horiz-adv-x="606" d="M37 1309q0 126 78 202t196 76q269 0 269 -360q0 -98 -34.5 -186t-83.5 -150.5t-98 -117.5t-83.5 -110.5t-34.5 -105.5q0 -93 67 -96v-60q-67 0 -105 44.5t-38 117.5q0 117 27 172q18 38 59 98.5t70 106.5t53 124.5t24 168.5q0 258 -114 258q-108 0 -111 -61 q78 -35 78 -146q0 -59 -31.5 -104t-77.5 -45q-50 0 -80 49t-30 125zM154 154q0 59 29.5 105t80.5 46q46 0 76.5 -46t30.5 -105q0 -62 -30.5 -108t-76.5 -46q-48 0 -79 46t-31 108z" />
<glyph unicode="@" horiz-adv-x="1064" d="M47 834q0 163 31.5 301.5t84 234t122 163t145 99t152.5 31.5q211 0 330.5 -151.5t119.5 -469.5q0 -138 -16 -240t-40.5 -159.5t-61 -91.5t-69.5 -44.5t-73 -10.5q-47 0 -79 21.5t-56 76.5q-4 -50 -44 -74t-83 -24q-66 0 -107 42t-41 134q0 150 68.5 261t167.5 181 l133 -27v-372q0 -129 57 -129q43 0 77 71.5t49.5 163t15.5 174.5q0 287 -84 418t-264 131q-76 0 -139.5 -29t-109.5 -81t-80.5 -120t-55.5 -149.5t-31 -165.5t-10 -172q0 -332 114 -520t324 -188h203q51 0 92 127h47l14 -246h-348q-267 0 -411 220t-144 614zM475 684 q0 -98 68 -98q29 0 45.5 30t29.5 84v308q-57 -51 -100 -135t-43 -189z" />
<glyph unicode="A" horiz-adv-x="835" d="M16 0v96h15q43 0 61 66l236 1224q4 28 4 39q0 43 -58 43h-34v97h237l277 -1403q18 -66 55 -66h18v-96h-327v96h18q62 0 62 43q0 2 -11 88l-26 183h-336l-33 -172q-4 -19 -5.5 -38t-1.5 -36.5t-1 -24.5q0 -43 59 -43h19v-96h-228zM225 504h303l-147 756z" />
<glyph unicode="B" horiz-adv-x="817" d="M23 0v96h28q14 0 21 4.5t15.5 28t11.5 69t6.5 133.5t4.5 214.5t1 318.5q0 443 -13 530q-9 65 -36 74q-8 2 -19 2h-20v95h356q148 0 217.5 -83t69.5 -251q0 -114 -34 -191t-104 -133q122 -24 194.5 -151.5t72.5 -294.5q0 -461 -334 -461h-438zM258 741q0 -410 8.5 -527.5 t42.5 -117.5h101q97 0 154 110.5t57 270.5q0 134 -25 208.5t-68.5 100t-117.5 25.5h-152v-70zM260 907h82q150 0 150 285q0 278 -164 278q-47 0 -57.5 -92.5t-10.5 -470.5z" />
<glyph unicode="C" horiz-adv-x="712" d="M25 807q0 758 415 758q97 0 169.5 -85t72.5 -182q0 -86 -29 -135t-80 -49q-46 0 -72 40.5t-26 105.5q0 106 68 147q-46 61 -111 61q-117 0 -174 -180.5t-57 -496.5q0 -99 1.5 -166.5t6.5 -149t14.5 -135.5t26.5 -108.5t41 -86t59.5 -51.5t81.5 -20q77 0 128 49.5 t77 128.5h55q-8 -112 -78 -193.5t-172 -81.5q-97 0 -168 33.5t-119 97.5t-76.5 167t-41 231t-12.5 301z" />
<glyph unicode="D" horiz-adv-x="790" d="M25 0v94h18q19 0 29.5 2t21 10.5t15 28t4.5 51.5v1192q0 56 -16 74t-52 18h-20v95h385q346 0 346 -697q0 -179 -10.5 -316t-32.5 -231.5t-50.5 -158t-70 -99t-86 -49.5t-103.5 -14h-378zM256 186q0 -35 16.5 -63.5t36.5 -28.5h43q66 0 112 53t70.5 156.5t35 231 t10.5 299.5q0 71 -2 132t-8.5 128t-17 120t-28 102t-41 82t-57 52.5t-74.5 19.5h-37q-59 0 -59 -92v-1192z" />
<glyph unicode="E" horiz-adv-x="669" d="M23 0v94h28q60 0 60 185v813q0 134 -2.5 203t-11.5 111.5t-22 53t-40 10.5h-12v95h532v-222h-74q0 125 -49 125h-84q-33 0 -47 -9.5t-25.5 -68t-13.5 -157t-2 -303.5h123q57 0 57 108v15h70v-344h-70v8q0 117 -57 117h-123v-392q0 -119 2.5 -184t12 -104t23 -49.5 t38.5 -10.5h170q49 0 49 125h70v-219h-602z" />
<glyph unicode="F" horiz-adv-x="575" d="M18 0v96h25q26 0 37.5 7.5t17.5 34t6 83.5v1024q0 119 -12.5 172t-58.5 53h-15v95h543v-222h-72q0 127 -47 127h-108q-51 0 -61.5 -65t-12.5 -339q-1 -127 -2 -204h121q55 0 55 107v16h74v-346h-74v8q0 119 -55 119h-123v-545q0 -79 16 -102t72 -23h16v-96h-342z" />
<glyph unicode="G" horiz-adv-x="774" d="M35 743q0 234 25.5 397.5t78.5 261.5t126 141.5t175 43.5q98 0 154.5 -79t56.5 -210q0 -63 -33 -112t-77 -49t-72.5 43t-28.5 104q0 109 70 146q-28 61 -90 61q-41 0 -73 -18.5t-54 -48.5t-37.5 -79.5t-24 -98.5t-13 -120t-6 -129t-1.5 -139q0 -784 182 -784 q62 0 99.5 105.5t37.5 264.5q0 115 -13 164t-50 49h-66v97h355v-97h-27q-53 0 -53 -63v-354q0 -148 78 -148h20v-96h-6q-61 0 -99 18t-58 46t-44 83q-15 -69 -73.5 -117.5t-149.5 -48.5q-63 0 -113 26.5t-82 64.5t-54.5 106t-34 124t-17.5 147t-7 147.5t-1 150.5z" />
<glyph unicode="H" horiz-adv-x="886" d="M51 0v96h21q40 0 53.5 41t13.5 119v930q0 169 -11.5 226.5t-55.5 57.5h-21v95h328v-95h-25q-41 0 -53 -42t-12 -164v-379h291v397q0 87 -13.5 137.5t-52.5 50.5h-22v95h327v-95h-20q-34 0 -52 -68t-18 -138v-1010q0 -93 18 -125.5t54 -32.5h18v-96h-327v96h22q40 0 54 36 t14 126v530h-293v-530q0 -89 15 -125.5t56 -36.5h19v-96h-328z" />
<glyph unicode="I" horiz-adv-x="452" d="M61 0v96h21q23 0 37.5 12t21.5 36t9 49t2 63v930q0 170 -11.5 227t-58.5 57h-21v95h328v-95h-22q-41 0 -53.5 -42t-12.5 -164v-1006q0 -89 15 -125.5t55 -36.5h18v-96h-328z" />
<glyph unicode="J" horiz-adv-x="593" d="M20 287q0 57 31 101t80 44q47 0 78 -47t31 -106q0 -109 -78 -144q3 -61 110 -61q29 0 50 15.5t35.5 50t23 75.5t13 107t6 129.5t1.5 156.5v492q0 196 -14 282t-53 86h-25v97h254q-20 -143 -20 -445v-733q0 -108 -31 -200.5t-94 -151t-146 -58.5q-124 0 -188 84.5 t-64 225.5z" />
<glyph unicode="K" horiz-adv-x="831" d="M12 0v96h15q31 0 45 12t21 53t7 128v968q0 92 -8 141t-18 60.5t-27 11.5q-25 0 -35 -2v97h328v-97q-4 2 -14 2q-33 0 -45 -17q-23 -35 -28 -234q-3 -114 -3 -373q44 2 74.5 42.5t47 104t30.5 140t30.5 152.5t39.5 139t65.5 102t101.5 39h121v-97h-60q-33 0 -57.5 -31.5 t-50.5 -93.5q-17 -41 -38.5 -128.5t-39 -156t-55.5 -135.5t-90 -92q58 -3 100.5 -45.5t65.5 -107.5t39.5 -143.5t28 -156t24.5 -141t34.5 -103.5t53.5 -40q56 0 71 111h64v-47q0 -166 -152 -166q-163 0 -213 188l-47 365q-44 206 -188 227v-483q0 -88 7 -128.5t21 -52.5 t46 -12h16v-96h-328z" />
<glyph unicode="L" horiz-adv-x="608" d="M8 0v96h29q21 0 33.5 11.5t18.5 38.5t7.5 55t1.5 78v847q0 156 -7 231t-19 94t-37 19h-27v95h328v-95h-21q-15 0 -24.5 -5t-18 -21.5t-12.5 -41.5t-7 -72.5t-4 -107t-1 -151.5v-817q0 -87 12.5 -122.5t54.5 -35.5h160q47 0 47 123h74v-219h-588z" />
<glyph unicode="M" horiz-adv-x="972" d="M27 0v92h16q45 0 60.5 30.5t15.5 102.5v996q0 108 -10 162.5t-27 69.5t-51 15v97h280l166 -1217l178 1217h285v-95h-14q-31 0 -45 -12.5t-22.5 -64t-8.5 -160.5v-860q0 -126 7 -184t21 -76.5t46 -18.5h16v-94h-328v94h15q50 0 67 45t17 174v967l-209 -1280h-121 l-201 1251v-1034q0 -125 72 -125h16v-92h-241z" />
<glyph unicode="N" horiz-adv-x="854" d="M33 0v94h18q40 0 54 22t14 97v1083q0 76 -8 114.5t-20.5 49t-37.5 10.5h-20v95h256l366 -1237v991q0 89 -14 120t-47 31h-25v95h256v-95h-16q-76 0 -76 -137v-1087q0 -120 15 -246h-148l-405 1329v-1116q0 -58 19.5 -88.5t51.5 -30.5h19v-94h-252z" />
<glyph unicode="O" d="M43 721q0 866 356 866q125 0 205 -75t121 -244.5t41 -442.5q0 -848 -385 -848q-84 0 -143.5 33.5t-105 115.5t-67.5 229.5t-22 365.5zM219 750q0 -85 1 -145t3.5 -129.5t8 -116.5t14.5 -96.5t22.5 -81t31.5 -57.5t43 -38t56 -12q189 0 189 704q0 82 -1 141.5t-4 131 t-8.5 122.5t-15 104.5t-23.5 89.5t-33 66t-45.5 44t-58.5 14q-180 0 -180 -741z" />
<glyph unicode="P" horiz-adv-x="727" d="M23 0v96h16q40 0 56 25t16 100v1112q0 61 -10 92t-23.5 38t-38.5 7q-14 0 -16 -2v97h391q291 0 291 -361q0 -456 -291 -456h-156v-463q0 -101 16.5 -145t59.5 -44h16v-96h-327zM258 850h107q163 0 163 319q0 72 -3.5 122t-13.5 83.5t-21 52.5t-32 28.5t-40.5 12 t-52.5 2.5h-35q-44 0 -58 -27.5t-14 -109.5v-483z" />
<glyph unicode="Q" horiz-adv-x="786" d="M37 721q0 866 354 866q126 0 206 -75.5t120.5 -244t40.5 -442.5q0 -666 -236 -809l4 -47q9 -68 15.5 -103.5t14.5 -64.5t20.5 -39t28 -15t42.5 -5q62 0 62 108h77v-45q0 -73 -45 -120t-118 -47q-90 0 -146 62.5t-71 190.5l-11 86h-22q-84 0 -143 33.5t-104 115.5 t-67 229.5t-22 365.5zM213 750q0 -321 12 -414q12 32 41.5 51t65.5 19q62 0 110.5 -58t61.5 -174v-6q78 159 78 610q0 65 -0.5 113.5t-2 107.5t-4.5 102.5t-8 92.5t-13 84.5t-18 71.5t-24.5 60t-31.5 43.5t-39.5 28.5t-49.5 9q-178 0 -178 -741zM244 244q18 -84 51.5 -126.5 t89.5 -43.5q-14 132 -33 191t-49 59q-59 0 -59 -80z" />
<glyph unicode="R" horiz-adv-x="856" d="M18 0v96h17q38 0 53.5 24.5t15.5 96.5v1120q0 84 -16 108.5t-51 24.5h-19v95h347q134 0 217.5 -82t83.5 -232q0 -169 -68 -273.5t-192 -127.5q83 -42 126 -130.5t76 -293.5q8 -42 16 -90t12 -76.5t10 -59.5t11.5 -48t14 -31.5t19.5 -20.5t26 -6q61 0 61 103v8h78v-47 q0 -82 -44 -124t-120 -42q-41 0 -74 19.5t-55.5 52.5t-41.5 87t-31 111t-25 137q-24 152 -55 239.5t-66.5 123t-89.5 47.5v-592q0 -121 76 -121h16v-96h-328zM256 922h104q138 0 138 270q0 154 -33.5 216t-104.5 62h-34q-45 0 -57.5 -22t-12.5 -88v-438z" />
<glyph unicode="S" horiz-adv-x="602" d="M-6 336l59 33q19 -105 77.5 -175.5t127.5 -70.5q68 0 114 56t46 124q0 64 -15.5 127t-51.5 133.5t-62.5 114.5t-83.5 128t-78 118q-88 137 -88 340q0 157 67 240t183 83q108 0 162 -117v82h73v-272h-73q0 73 -37 130.5t-103 57.5q-48 0 -85.5 -46.5t-37.5 -112.5 q0 -87 22 -164.5t57 -137t77 -116.5l84 -114t77 -116t57 -136t22 -163q0 -197 -85 -291t-220 -94q-111 0 -192 100.5t-93 258.5z" />
<glyph unicode="T" horiz-adv-x="733" d="M8 1298v267h721v-267h-74q0 150 -73 150h-62q-52 0 -64 -33t-12 -145v-983q0 -113 17.5 -152t77.5 -39h6v-96h-352v96h18q46 0 64 39t18 152v983q0 101 -18.5 138.5t-57.5 37.5h-86q-49 0 -49 -148h-74z" />
<glyph unicode="U" horiz-adv-x="858" d="M18 1470v95h342v-95h-38q-52 0 -52 -92v-934q0 -89 4.5 -147t16 -104t34 -70.5t55.5 -36.5t83 -12q84 0 130 31.5t67.5 111.5t21.5 227v934q0 56 -12.5 74t-48.5 18h-35v95h254v-95h-29q-32 0 -42.5 -17.5t-10.5 -74.5v-956q0 -106 -15 -185t-48.5 -139t-91.5 -90.5 t-140 -30.5q-87 0 -150.5 22t-112.5 73.5t-73.5 144t-24.5 227.5v934q0 58 -10.5 75t-50.5 17h-23z" />
<glyph unicode="V" horiz-adv-x="817" d="M8 1468v97h322v-99h-37q-43 0 -43 -28q0 -23 2 -37l197 -1098l215 1098q0 65 -60 65h-18v99h223v-99h-10q-29 0 -40 -12.5t-22 -52.5l-262 -1401h-123l-276 1401q-18 67 -56 67h-12z" />
<glyph unicode="W" horiz-adv-x="1226" d="M6 1470v95h316v-97h-21q-61 0 -61 -41q0 -1 0.5 -3.5l1.5 -7.5t2 -11l159 -1102l215 981h91l200 -981l168 1057q4 50 4 65q0 43 -59 43h-18v97h219v-97h-6q-32 0 -43 -12t-19 -51l-225 -1405h-121l-197 891l-190 -891h-115l-241 1405q-18 65 -46 65h-14z" />
<glyph unicode="X" horiz-adv-x="770" d="M12 2v96h13q35 0 59 64l225 616l-223 627q-15 40 -28 52.5t-38 12.5h-8v95h353v-97l-50 2q-30 0 -30 -36q0 -35 12 -74l127 -434l135 432q5 17 8 32.5t4.5 28.5t1.5 15q0 36 -67 36q-8 0 -10 -2v97h260v-95h-17q-25 0 -36 -12.5t-25 -52.5l-215 -604l217 -639 q12 -30 30.5 -47t37.5 -17h8v-96h-353v96h21q59 0 59 35q0 47 -14 88l-119 432l-149 -454q-11 -49 -11 -68q0 -33 66 -33h16v-96h-260z" />
<glyph unicode="Y" horiz-adv-x="827" d="M12 1468v97h353v-97l-50 2q-28 0 -28 -43q1 -4 2.5 -24.5t7.5 -40.5l162 -563l166 602q8 21 8 43q0 26 -37 26h-41v95h264v-95h-26q-26 0 -35 -22l-269 -803v-477q0 -72 52 -72h18v-96h-293v96h23q26 0 38.5 16t12.5 56v477l-254 760q-14 39 -27 52t-39 13q-6 0 -8 -2z " />
<glyph unicode="Z" horiz-adv-x="620" d="M20 0v102l394 1366h-242q-49 0 -49 -110v-10h-72v217h535v-86l-404 -1383h285q49 0 49 115v10h70v-221h-566z" />
<glyph unicode="[" horiz-adv-x="624" d="M133 -545v2208h393l-24 -115h-226v-1974h250l-24 -119h-369z" />
<glyph unicode="\" horiz-adv-x="591" d="M33 1565h106l430 -1565h-104z" />
<glyph unicode="]" horiz-adv-x="624" d="M133 -426h250v1974h-225l-25 115h393v-2208h-368z" />
<glyph unicode="_" horiz-adv-x="671" d="M-12 -78h696v-141h-696v141z" />
<glyph unicode="`" horiz-adv-x="339" d="M16 1333h195l129 -211h-80z" />
<glyph unicode="a" horiz-adv-x="722" d="M23 217q0 63 29.5 122t73.5 101.5t105 82t111.5 63.5t106.5 45v96q0 53 -8 93.5t-19.5 63.5t-26.5 37t-27 18.5t-24 4.5q-93 0 -133 -61q34 -13 55 -44.5t21 -76.5q0 -58 -30.5 -94.5t-80.5 -36.5q-46 0 -76 37.5t-30 101.5q0 128 86.5 199t208.5 71q124 0 182.5 -72 t58.5 -229v-587q0 -48 33 -48q27 0 27 74v12q0 2 -1 14t-1 21h71v-78q0 -68 -35.5 -114.5t-95.5 -46.5q-87 0 -133 104q-113 -113 -238 -113q-97 0 -153.5 60.5t-56.5 179.5zM180 256q0 -62 36.5 -109t80.5 -47q50 0 93 36.5t56 78.5v334q-46 -21 -74.5 -36t-69.5 -43 t-64 -55.5t-40.5 -69t-17.5 -89.5z" />
<glyph unicode="b" horiz-adv-x="696" d="M18 1567v96h246q-16 -217 -16 -717q23 44 73 70t93 26q93 0 146 -45.5t78.5 -157.5t25.5 -313q0 -211 -29.5 -331.5t-87.5 -169t-158 -48.5q-53 0 -104.5 30.5t-87.5 92.5q-6 -41 -39 -100h-68v1448q0 74 -16 96.5t-56 22.5zM258 215q43 -141 125 -141q68 0 86 85t18 345 q0 132 -7.5 220.5t-23 136t-35 66.5t-48.5 19q-79 0 -115 -145v-586z" />
<glyph unicode="c" horiz-adv-x="604" d="M31 555q0 124 29.5 220.5t79 153t108 85t123.5 28.5q99 0 160 -63.5t61 -177.5q0 -80 -30.5 -125t-80.5 -45q-49 0 -78.5 39t-29.5 100q0 53 17.5 79t58.5 46q-3 61 -95 61q-31 0 -55.5 -17t-46 -58.5t-33.5 -124t-12 -201.5q0 -247 40.5 -358t121.5 -111q153 0 194 164 l53 -14q-21 -111 -89.5 -185t-157.5 -74q-338 0 -338 578z" />
<glyph unicode="d" horiz-adv-x="710" d="M27 530q0 141 19.5 243.5t55 159.5t77.5 83t93 26q60 0 114.5 -25.5t78.5 -70.5q0 128 -7 272t-12 187q-5 32 -21.5 47.5t-53.5 15.5v97h250v-1297q0 -105 11 -138.5t48 -33.5h22v-96q-183 0 -186 100q-84 -123 -215 -123q-55 0 -102 29.5t-86.5 91.5t-62.5 172.5 t-23 259.5zM211 504q0 -249 23.5 -339.5t95.5 -90.5q46 0 84.5 45.5t48.5 95.5v586q-15 61 -47 103t-76 42q-29 0 -51 -19t-40.5 -66t-28 -136.5t-9.5 -220.5z" />
<glyph unicode="e" horiz-adv-x="659" d="M51 535q0 507 291 507q141 0 218 -111t77 -372h-416q0 -105 6.5 -182.5t23.5 -148.5t51 -108.5t85 -37.5q70 0 122 47t66 117l46 -10q-13 -109 -81.5 -184t-185.5 -75q-145 0 -224 138.5t-79 419.5zM221 651h254q0 154 -27.5 224.5t-97.5 70.5q-55 0 -89 -75t-40 -220z " />
<glyph unicode="f" horiz-adv-x="432" d="M-6 924v96h100q0 88 -17.5 215t-17.5 172q0 279 232 279q93 0 151 -81t58 -192q0 -75 -33.5 -115.5t-81.5 -40.5q-49 0 -79 36.5t-30 92.5q0 63 21.5 99.5t73.5 46.5q-6 33 -30 54.5t-54 21.5q-99 0 -99 -193q0 -41 25 -169t25 -226h194v-96h-196q0 -582 14 -706 q10 -99 42 -116q11 -6 32 -6h32v-96h-356v96q40 0 55 23q28 42 35 251q4 144 4 554h-100z" />
<glyph unicode="g" horiz-adv-x="645" d="M-20 -276q0 64 17 114t51.5 85.5t71.5 59.5t91 48q-51 16 -79 48t-28 60q0 40 31 56t96 18q-188 71 -188 401q0 190 81 309t210 119q108 0 151 -53q14 103 49 157t101 54q29 0 46 -21.5t17 -54.5q0 -36 -16.5 -59t-46.5 -23q-21 0 -38.5 13.5t-21.5 36.5 q-25 -37 -45 -140q26 -26 60.5 -127.5t34.5 -210.5q0 -187 -75 -312.5t-185 -125.5q-29 0 -56 6q-82 -6 -82 -32q0 -22 36 -55t147 -118q72 -57 105.5 -138.5t33.5 -160.5q0 -35 -9 -68.5t-31 -66t-54 -56.5t-82.5 -39t-112.5 -15q-280 0 -280 291zM150 -256q0 -127 29 -178 t97 -51q59 0 100.5 49t41.5 106q0 112 -39 189t-115 137q-114 -60 -114 -252zM219 500q0 -236 115 -236q57 0 86 55t29 181v223q0 124 -28.5 173.5t-86.5 49.5q-54 0 -84.5 -50.5t-30.5 -172.5v-223z" />
<glyph unicode="h" horiz-adv-x="796" d="M41 0v96q75 0 78 66q10 358 10 633q0 248 -10 708q-5 42 -16 54t-46 12q-14 0 -16 -2v96h254q0 -352 -8 -696q22 36 71 55.5t101 19.5q48 0 85.5 -14t62.5 -35t43 -57.5t27.5 -70.5t14.5 -84t6.5 -88.5t1.5 -94.5v-438q0 -64 76 -64v-96h-327v96q52 0 65.5 32t13.5 126 v522q0 85 -32.5 128.5t-85.5 43.5q-123 0 -123 -225q0 -87 3.5 -276.5t4.5 -286.5q6 -40 18.5 -52t55.5 -12v-96h-328z" />
<glyph unicode="i" horiz-adv-x="391" d="M39 0v96h24q46 0 56 38.5t10 230.5v268q0 126 -7 187.5t-22.5 82.5t-46.5 21h-14v96h252q-8 -68 -8 -283v-372q0 -188 10.5 -228.5t58.5 -40.5h15v-96h-328zM86 1423q0 56 30.5 103t80.5 47q47 0 77.5 -45.5t30.5 -104.5q0 -64 -30 -108.5t-78 -44.5q-47 0 -79 45.5 t-32 107.5z" />
<glyph unicode="j" horiz-adv-x="348" d="M-248 -258q0 55 31 99t80 44q46 0 78 -46t32 -105q0 -109 -77 -144q3 -61 108 -61q23 0 40.5 7.5t31 27t22.5 42.5t15.5 64.5t10.5 81.5t6 105t2.5 123.5t0.5 148.5v584q0 211 -51 211h-57v96h270q-21 -405 -21 -838v-297q0 -211 -71 -331.5t-199 -120.5 q-115 0 -183.5 86t-68.5 223zM90 1415q0 59 31.5 105.5t77.5 46.5q48 0 79 -46t31 -106t-31 -105.5t-79 -45.5q-46 0 -77.5 46t-31.5 105z" />
<glyph unicode="k" horiz-adv-x="708" d="M31 0v96h24q41 0 49.5 38t8.5 220v1026q0 116 -11.5 151.5t-46.5 35.5h-24v96h252q-15 -209 -15 -862v-262q114 126 167.5 218t53.5 130q0 37 -28 37h-39v96h254v-96h-19q-28 0 -57 -35.5t-54 -85t-74 -122t-107 -128.5q27 -23 62.5 -86.5t100.5 -196.5q85 -174 222 -174 v-96h-127q-79 0 -134 59.5t-124 229.5q-67 164 -93 196v-227q0 -98 10.5 -130t49.5 -32h24v-96h-325z" />
<glyph unicode="l" horiz-adv-x="391" d="M35 0v96q75 0 78 66q8 287 8 633q0 336 -8 708q-4 41 -16.5 53.5t-45.5 12.5q-14 0 -16 -2v96h254q-10 -532 -10 -940q0 -85 4.5 -271.5t5.5 -291.5q5 -41 16.5 -52.5t56.5 -11.5v-96h-327z" />
<glyph unicode="m" horiz-adv-x="1148" d="M37 924v96h45q49 0 81.5 -23.5t63.5 -78.5q63 124 199 124q63 0 105 -32.5t73 -96.5q29 65 88.5 97t132.5 32q226 0 226 -294v-492q0 -95 12 -127.5t45 -32.5h18v-96h-327v96h30q34 0 42 30t8 130v492q0 186 -119 186q-51 0 -76 -35t-25 -113v-626q0 -38 14 -51t44 -13 h18v-96h-303v96h21q55 0 55 64v626q0 79 -24 113.5t-78 34.5q-22 0 -39.5 -6t-29.5 -20t-21 -27.5t-14.5 -39.5t-8.5 -44.5t-4 -53t-1.5 -54t-0.5 -58.5v-8v-267q0 -182 5.5 -222t31.5 -40h43v-94h-328v96h24q23 0 33 6t17 37.5t8.5 79t1.5 150.5v268v20q0 185 -10 223 q-9 38 -41 43q-6 1 -15 1h-20z" />
<glyph unicode="n" horiz-adv-x="757" d="M16 924v96h45q49 0 82 -23.5t64 -78.5q63 124 199 124q116 0 192 -76t76 -218v-492q0 -97 11 -128.5t46 -31.5h10v-96h-319v96h29q34 0 42.5 30.5t8.5 129.5v492q0 186 -117 186q-22 0 -39.5 -6t-29.5 -20t-21 -27.5t-14.5 -39.5t-8.5 -44.5t-4 -53t-1.5 -54t-0.5 -58.5 v-8v-267q0 -182 5.5 -222t31.5 -40h43v-94h-328v96h25q22 0 32 6t17 37t8.5 80t1.5 150v268v29q0 179 -10 216t-43 41l-12 1h-21z" />
<glyph unicode="o" horiz-adv-x="632" d="M23 520q0 522 290 522q65 0 116 -26t91.5 -84t62 -162t21.5 -250q0 -543 -291 -543q-65 0 -115 26.5t-91 86.5t-62.5 168.5t-21.5 261.5zM205 502q0 -274 17 -351t91 -77q26 0 43.5 7t30.5 28.5t20 48.5t11 81t5 111t1 152q0 273 -19 358.5t-92 85.5q-74 0 -91 -83 t-17 -361z" />
<glyph unicode="p" horiz-adv-x="714" d="M16 -449q56 0 70 38.5t14 179.5v983q0 105 -11 138.5t-48 33.5h-23v96q186 0 189 -102q69 124 205 124q87 0 142 -42t86.5 -151.5t31.5 -293.5q0 -93 -3.5 -163t-13 -139t-27 -116.5t-44 -85.5t-66.5 -56t-92 -18q-116 0 -170 97q0 -128 6.5 -271.5t11.5 -187.5 q5 -33 22 -48.5t54 -15.5v-96h-334v96zM258 215q36 -143 115 -143q29 0 48.5 19t35 66.5t23 136t7.5 220.5q0 259 -18 344.5t-86 85.5q-47 0 -78 -43.5t-47 -99.5v-586z" />
<glyph unicode="q" horiz-adv-x="729" d="M47 547q0 128 16 221t40.5 144.5t61.5 82t70.5 39t77.5 8.5q57 0 112.5 -32t92.5 -92q18 49 51.5 75.5t71.5 26.5h68v-96h-29q-16 0 -26.5 -5t-16.5 -11t-8.5 -23.5t-3 -30.5t-0.5 -43v-1143q0 -117 37 -117q28 0 28 54v67h68v-78q0 -72 -37 -116.5t-94 -44.5 q-49 0 -81.5 21.5t-49 63.5t-23 89.5t-6.5 113.5v336q-20 -37 -67 -58.5t-107 -21.5q-246 0 -246 570zM225 514q0 -175 14 -274t37.5 -133.5t63.5 -34.5q81 0 113 143v586q-11 50 -45.5 96.5t-77.5 46.5q-69 0 -87 -86t-18 -344z" />
<glyph unicode="r" horiz-adv-x="567" d="M23 0v96h40q30 0 39 48t9 178v368q0 104 -7 154.5t-19 65t-38 14.5h-24v96h59q95 0 139 -127q32 76 74 112.5t104 36.5q90 0 137.5 -65t47.5 -180q0 -69 -32.5 -117.5t-76.5 -48.5q-50 0 -80 39.5t-30 103.5q0 109 88 109q0 63 -70 63q-69 0 -94 -60t-25 -196v-368 q0 -130 11.5 -178t46.5 -48h28v-96h-327z" />
<glyph unicode="s" horiz-adv-x="591" d="M8 215l58 21q19 -69 74 -115.5t120 -46.5q64 0 99.5 43.5t35.5 107.5q0 51 -19 94.5t-49 76.5t-66.5 64.5t-73 65t-66.5 70.5t-49 88.5t-19 112.5q0 110 65 177.5t171 67.5q102 0 153 -77v55h68v-277h-68q0 203 -133 203q-47 0 -75.5 -29.5t-28.5 -89.5q0 -49 20 -86.5 t52 -63t70.5 -50t77 -54.5t70.5 -67.5t52 -99t20 -140.5q0 -134 -82.5 -211.5t-205.5 -77.5q-105 0 -181.5 66.5t-89.5 171.5z" />
<glyph unicode="t" horiz-adv-x="421" d="M0 924v96q51 0 97 60.5t73 155.5t27 196h63v-412h141v-96h-141v-750q0 -100 53 -100q57 0 60 100h59q-5 -86 -40.5 -141.5t-104.5 -55.5q-94 0 -144.5 59.5t-50.5 176.5v711h-92z" />
<glyph unicode="u" horiz-adv-x="704" d="M16 924v96h328v-96h-35q-33 0 -42 -39t-9 -142v-448q0 -121 30.5 -171t94.5 -50q62 0 91.5 50t29.5 171v448q0 104 -9.5 142.5t-45.5 38.5h-27v96h270v-96h-28q-25 0 -36.5 -26.5t-11.5 -100.5v-504q0 -316 -274 -316q-114 0 -181 80t-67 236v504q0 73 -11 100t-40 27 h-27z" />
<glyph unicode="v" horiz-adv-x="622" d="M6 924v96h320v-96h-23q-55 0 -55 -41q0 -19 2 -25l121 -594l110 615q0 45 -59 45h-19v96h218v-96h-7q-21 0 -36 -17t-21 -49l-174 -858h-123l-186 858q-17 49 -24.5 57.5t-31.5 8.5h-12z" />
<glyph unicode="w" horiz-adv-x="972" d="M6 924v96h336v-96h-39q-57 0 -57 -31q0 -3 4 -35l59 -588l168 750h109l153 -750l78 602q0 52 -55 52h-39v96h246v-96h-19q-40 0 -49 -58l-131 -866h-123l-162 711l-157 -711h-121l-133 858q-4 31 -16.5 48.5t-26.5 17.5h-25z" />
<glyph unicode="x" horiz-adv-x="669" d="M25 0v96h6q48 0 69.5 26t59.5 118l114 274l-159 342q-35 68 -84 68h-6v96h319v-96h-8q-64 0 -64 -41q0 -19 15 -54l84 -231l82 221q14 38 14 60q0 24 -9 34.5t-32 10.5h-23v96h240v-96h-4q-65 0 -98 -68l-140 -330l164 -366q27 -64 82 -64h6v-96h-327v96h18q62 0 62 41 q-2 8 -8 35.5t-11 42.5l-84 234l-88 -230q-18 -47 -18 -72q0 -27 15.5 -39t53.5 -12h10v-96h-251z" />
<glyph unicode="y" horiz-adv-x="655" d="M-6 -301q0 81 34 120.5t91 39.5q52 0 79 -39t27 -103q0 -59 -28 -95t-76 -42q9 -28 19.5 -39.5t37.5 -11.5q39 0 73 65.5t50 190.5l25 192l-236 881q-12 41 -23 53.5t-34 12.5h-17v96h326v-96h-35q-43 0 -43 -31q0 -19 4 -47l119 -582l105 555q8 27 8 60q0 45 -62 45h-18 v96h225v-96h-24q-23 0 -33 -15.5t-15 -50.5l-184 -1073q-56 -352 -233 -352q-68 0 -115 68.5t-47 197.5z" />
<glyph unicode="z" horiz-adv-x="606" d="M25 0v96l381 735h-250q-47 0 -47 -122h-72v311h520v-96l-383 -736h283q47 0 47 125h74v-313h-553z" />
<glyph unicode="{" horiz-adv-x="509" d="M0 594l135 141v744q100 147 318 188v-43q-94 -26 -168 -119v-817l-90 -94l90 -96v-750q19 -61 62.5 -104.5t105.5 -63.5v-57q-175 15 -318 133v793z" />
<glyph unicode="|" horiz-adv-x="266" d="M90 -545v2208h82v-2208h-82z" />
<glyph unicode="}" horiz-adv-x="509" d="M0 -420q62 21 107 64t63 104v750l88 96l-88 94v817q-74 93 -170 119v43q103 -19 186 -67t131 -121v-744l136 -141l-136 -145v-793q-140 -118 -317 -133v57z" />
<glyph unicode="~" horiz-adv-x="886" d="M82 705q5 120 52.5 182.5t162.5 62.5q56 0 102.5 -17.5t79 -42.5t62.5 -50t66.5 -42.5t76.5 -17.5q30 0 43.5 27.5t24.5 107.5h69v-49q0 -83 -47 -141.5t-139 -58.5q-58 0 -104.5 18t-77 43.5t-59 51t-67.5 43.5t-87 18q-76 0 -80 -135h-78z" />
<glyph unicode="&#xa1;" horiz-adv-x="378" d="M74 -168q0 173 22 332.5t44 315t22 319.5l53 2v-2q0 -162 24 -315.5t48 -313t24 -336.5q0 -62 -34 -105.5t-89 -43.5q-53 0 -83.5 42t-30.5 105zM78 1102q0 62 31 107.5t79 45.5q46 0 76.5 -45.5t30.5 -107.5q0 -56 -31 -104t-76 -48q-51 0 -80.5 46.5t-29.5 105.5z" />
<glyph unicode="&#xa2;" horiz-adv-x="890" d="M90 778q0 162 91.5 280.5t262.5 145.5v361h70v-353q123 0 204 -51t81 -129q0 -32 -34.5 -61t-72.5 -29q-86 0 -86 84q0 3 4 25t4 32q0 63 -100 72v-666q172 0 248 113l53 -27q-36 -87 -121 -136t-180 -56v-383h-70v383q-165 6 -259.5 117t-94.5 278zM274 844 q0 -125 43.5 -215.5t126.5 -124.5v643q-79 -26 -124.5 -116t-45.5 -187z" />
<glyph unicode="&#xa3;" horiz-adv-x="931" d="M20 63q35 78 68.5 127.5t79.5 77.5q86 192 129 346h-117v91h142q18 71 36.5 171t32.5 180t33 170.5t43.5 157t58 123t83 86t112.5 29.5q94 0 143 -46t49 -122q0 -57 -22 -94t-64 -37q-33 0 -53 26t-20 74q0 59 37 88q-33 33 -86 33q-55 0 -90.5 -49.5t-55.5 -141.5 t-33.5 -191t-35.5 -230t-50 -227h232v-91h-262q-42 -112 -86 -184t-113 -151q70 49 131 49q44 0 94 -44.5t94 -123.5q64 -119 162 -119q85 0 174 121l35 -35q-89 -164 -305 -164q-138 0 -209 152q-61 125 -149 125q-17 0 -32.5 -7t-30.5 -24.5t-25 -30.5t-24.5 -43 t-20.5 -43.5t-20.5 -49t-18.5 -44.5z" />
<glyph unicode="&#xa5;" horiz-adv-x="827" d="M12 1468v97h353v-97l-50 2q-28 0 -28 -43q1 -4 2.5 -24.5t7.5 -40.5l162 -547l166 586q8 21 8 43q0 26 -37 26h-41v95h264v-95h-26q-26 0 -35 -22l-189 -561h201v-101h-233l-48 -141v-53h281v-107h-281v-317q0 -72 52 -72h18v-96h-293v96h23q26 0 38.5 16t12.5 56v317 h-295v107h295v53l-49 141h-246v101h213l-172 518q-12 39 -24.5 52t-41.5 13q-6 0 -8 -2z" />
<glyph unicode="&#xa8;" horiz-adv-x="460" d="M43 1235q0 86 76 86q34 0 55 -25t21 -61t-21 -61t-55 -25q-76 0 -76 86zM309 1235q0 36 21 61t55 25q32 0 54 -25t22 -61t-22 -61t-54 -25q-76 0 -76 86z" />
<glyph unicode="&#xa9;" horiz-adv-x="1691" d="M55 811q0 164 61 313.5t164.5 257.5t246.5 172t300 64t300 -64t246.5 -172t164.5 -257.5t61 -313.5q0 -218 -103.5 -404.5t-281.5 -295.5t-387 -109t-387 109t-281.5 295.5t-103.5 404.5zM147 809q0 -146 54 -278.5t145.5 -228t217.5 -152t265 -56.5t266 56.5t219.5 152 t147 228t54.5 278.5q0 192 -92.5 358t-251 263.5t-343.5 97.5q-139 0 -265.5 -58t-217.5 -154.5t-145 -229.5t-54 -277zM526 844q0 81 28.5 144.5t76 101t104.5 56.5t119 19q97 0 154 -40.5t57 -116.5q0 -55 -28 -85t-76 -30q-47 0 -76 26.5t-29 67.5q0 35 17.5 53t56.5 29 q-3 41 -92 41q-65 0 -103.5 -57.5t-38.5 -208.5q0 -163 39.5 -236t116.5 -73q150 0 186 106l49 -8q-19 -75 -84 -123.5t-151 -48.5q-156 0 -241 93t-85 290z" />
<glyph unicode="&#xab;" horiz-adv-x="765" d="M39 563l276 311l29 -38l-174 -273l174 -278l-29 -35zM360 563l275 311l27 -38l-173 -273l173 -278l-27 -35z" />
<glyph unicode="&#xad;" horiz-adv-x="563" d="M41 485v121h479v-121h-479z" />
<glyph unicode="&#xae;" horiz-adv-x="1165" d="M61 1178q0 97 38.5 186t105.5 155t163.5 105t206.5 39q147 0 267 -64.5t188 -176t68 -244.5q0 -126 -69 -237t-190 -179t-264 -68q-110 0 -207 40t-163.5 106.5t-105 154.5t-38.5 183zM158 1178q0 -99 49 -188.5t146 -148.5t220 -59q182 0 311.5 115.5t129.5 280.5 q0 72 -33.5 142.5t-90.5 125.5t-140.5 89t-176.5 34t-172.5 -34t-131.5 -89.5t-81.5 -125t-29.5 -142.5zM414 907v525h188q74 0 119 -45t45 -123q0 -50 -21 -84t-67 -64l94 -209h-110l-89 193h-55v-193h-104zM518 1206h86q55 0 55 58q0 63 -55 63h-86v-121z" />
<glyph unicode="&#xb4;" horiz-adv-x="339" d="M14 1122l127 211h195l-244 -211h-78z" />
<glyph unicode="&#xb6;" horiz-adv-x="1077" d="M35 1182q0 190 88.5 286.5t257.5 96.5h592l16 -58l-96 -82v-1425h-107v1434h-282v-1434h-105v807q-173 8 -268.5 105.5t-95.5 269.5z" />
<glyph unicode="&#xb7;" horiz-adv-x="307" d="M43 807q0 56 31 103.5t78 47.5q51 0 79.5 -46t28.5 -105q0 -62 -31 -108t-77 -46q-48 0 -78.5 46t-30.5 108z" />
<glyph unicode="&#xb8;" horiz-adv-x="331" d="M102 -117l86 168h86l-81 -164q28 4 53 4q33 0 55.5 -24t22.5 -62q0 -73 -50.5 -121.5t-144.5 -48.5v37q107 46 107 101q0 41 -70 41z" />
<glyph unicode="&#xbb;" horiz-adv-x="765" d="M39 285l172 278l-172 273l27 38l276 -311l-276 -313zM356 285l174 278l-174 273l29 38l277 -311l-277 -313z" />
<glyph unicode="&#xbf;" horiz-adv-x="606" d="M37 43q0 100 34.5 188t83.5 149.5t98 116t83.5 110t34.5 108.5q0 93 -68 96v59q66 0 104.5 -45t38.5 -116q0 -121 -26 -172q-19 -37 -61 -98.5t-70 -107t-52 -124.5t-24 -168q0 -145 30 -201.5t85 -56.5q104 0 110 61q-78 35 -78 144q0 59 31.5 105t77.5 46 q50 0 80.5 -49t30.5 -125q0 -128 -78 -203t-197 -75q-268 0 -268 358zM246 1118q0 62 30 108t76 46q48 0 79.5 -46t31.5 -108q0 -59 -30 -105t-81 -46q-46 0 -76 46t-30 105z" />
<glyph unicode="&#xc0;" horiz-adv-x="835" d="M16 0v96h15q43 0 61 66l236 1224q4 28 4 39q0 43 -58 43h-34v97h237l277 -1403q18 -66 55 -66h18v-96h-327v96h18q62 0 62 43q0 2 -11 88l-26 183h-336l-33 -172q-4 -19 -5.5 -38t-1.5 -36.5t-1 -24.5q0 -43 59 -43h19v-96h-228zM225 504h303l-147 756zM256 1878h195 l129 -211h-80z" />
<glyph unicode="&#xc1;" horiz-adv-x="835" d="M16 0v96h15q43 0 61 66l236 1224q4 28 4 39q0 43 -58 43h-34v97h237l277 -1403q18 -66 55 -66h18v-96h-327v96h18q62 0 62 43q0 2 -11 88l-26 183h-336l-33 -172q-4 -19 -5.5 -38t-1.5 -36.5t-1 -24.5q0 -43 59 -43h19v-96h-228zM225 504h303l-147 756zM258 1667l127 211 h195l-244 -211h-78z" />
<glyph unicode="&#xc2;" horiz-adv-x="835" d="M16 0v96h15q43 0 61 66l236 1224q4 28 4 39q0 43 -58 43h-34v97h237l277 -1403q18 -66 55 -66h18v-96h-327v96h18q62 0 62 43q0 2 -11 88l-26 183h-336l-33 -172q-4 -19 -5.5 -38t-1.5 -36.5t-1 -24.5q0 -43 59 -43h19v-96h-228zM205 1671l151 211h123l152 -211h-80 l-135 146l-131 -146h-80zM225 504h303l-147 756z" />
<glyph unicode="&#xc3;" horiz-adv-x="835" d="M16 0v96h15q43 0 61 66l236 1224q4 28 4 39q0 43 -58 43h-34v97h237l277 -1403q18 -66 55 -66h18v-96h-327v96h18q62 0 62 43q0 2 -11 88l-26 183h-336l-33 -172q-4 -19 -5.5 -38t-1.5 -36.5t-1 -24.5q0 -43 59 -43h19v-96h-228zM184 1731q2 77 33 117t102 40 q43 0 79 -17t55.5 -37t48.5 -37t61 -17q19 0 28 18.5t13 67.5h45v-31q0 -54 -30 -91.5t-89 -37.5q-35 0 -63.5 11.5t-47.5 28t-37.5 33.5t-43.5 28.5t-55 11.5q-46 0 -50 -88h-49zM225 504h303l-147 756z" />
<glyph unicode="&#xc4;" horiz-adv-x="835" d="M16 0v96h15q43 0 61 66l236 1224q4 28 4 39q0 43 -58 43h-34v97h237l277 -1403q18 -66 55 -66h18v-96h-327v96h18q62 0 62 43q0 2 -11 88l-26 183h-336l-33 -172q-4 -19 -5.5 -38t-1.5 -36.5t-1 -24.5q0 -43 59 -43h19v-96h-228zM209 1780q0 86 76 86q34 0 54.5 -24.5 t20.5 -61.5t-20.5 -61.5t-54.5 -24.5q-76 0 -76 86zM225 504h303l-147 756zM475 1780q0 36 21 61t55 25q32 0 54 -25t22 -61t-22 -61t-54 -25q-76 0 -76 86z" />
<glyph unicode="&#xc5;" horiz-adv-x="835" d="M16 0v96h15q43 0 61 66l236 1224q4 28 4 39q0 43 -58 43h-34v97h237l277 -1403q18 -66 55 -66h18v-96h-327v96h18q62 0 62 43q0 2 -11 88l-26 183h-336l-33 -172q-4 -19 -5.5 -38t-1.5 -36.5t-1 -24.5q0 -43 59 -43h19v-96h-228zM225 504h303l-147 756zM250 1708 q0 61 49 101t117 40q69 0 118.5 -39.5t49.5 -101.5t-49.5 -101.5t-118.5 -39.5q-68 0 -117 40t-49 101zM360 1702q0 -92 56 -92q55 0 55 92q0 94 -55 94q-56 0 -56 -94z" />
<glyph unicode="&#xc6;" horiz-adv-x="1169" d="M37 0v96h14q41 0 76 66l467 1224q12 36 12 50q0 32 -49 32h-16v97h536v-222h-73q0 125 -50 125h-84q-33 0 -47 -9.5t-25.5 -68t-13.5 -157t-2 -303.5h123q58 0 58 108v15h69v-344h-69v8q0 117 -58 117h-123v-623q0 -66 16 -91.5t50 -25.5h180q49 0 49 125h70v-219h-627 v96h19q54 0 69 22.5t15 108.5v183h-336l-66 -172q-9 -24 -15 -47.5t-9 -41t-4 -20.5q0 -33 53 -33h18v-96h-227zM324 504h303v756z" />
<glyph unicode="&#xc7;" horiz-adv-x="712" d="M25 807q0 758 415 758q97 0 169.5 -85t72.5 -182q0 -86 -29 -135t-80 -49q-46 0 -72 40.5t-26 105.5q0 106 68 147q-46 61 -111 61q-117 0 -174 -180.5t-57 -496.5q0 -99 1.5 -166.5t6.5 -149t14.5 -135.5t26.5 -108.5t41 -86t59.5 -51.5t81.5 -20q77 0 128 49.5 t77 128.5h55q-8 -112 -78 -193.5t-172 -81.5q-16 0 -61 5l-47 -95q28 4 53 4q35 0 56.5 -24t21.5 -62q0 -73 -50.5 -121.5t-144.5 -48.5v37q109 47 109 101q0 41 -72 41l-61 69l57 117q-154 54 -216 247.5t-62 559.5z" />
<glyph unicode="&#xc8;" horiz-adv-x="669" d="M23 0v94h28q60 0 60 185v813q0 134 -2.5 203t-11.5 111.5t-22 53t-40 10.5h-12v95h532v-222h-74q0 125 -49 125h-84q-33 0 -47 -9.5t-25.5 -68t-13.5 -157t-2 -303.5h123q57 0 57 108v15h70v-344h-70v8q0 117 -57 117h-123v-392q0 -119 2.5 -184t12 -104t23 -49.5 t38.5 -10.5h170q49 0 49 125h70v-219h-602zM172 1878h195l129 -211h-80z" />
<glyph unicode="&#xc9;" horiz-adv-x="669" d="M23 0v94h28q60 0 60 185v813q0 134 -2.5 203t-11.5 111.5t-22 53t-40 10.5h-12v95h532v-222h-74q0 125 -49 125h-84q-33 0 -47 -9.5t-25.5 -68t-13.5 -157t-2 -303.5h123q57 0 57 108v15h70v-344h-70v8q0 117 -57 117h-123v-392q0 -119 2.5 -184t12 -104t23 -49.5 t38.5 -10.5h170q49 0 49 125h70v-219h-602zM172 1667l127 211h195l-244 -211h-78z" />
<glyph unicode="&#xca;" horiz-adv-x="669" d="M23 0v94h28q60 0 60 185v813q0 134 -2.5 203t-11.5 111.5t-22 53t-40 10.5h-12v95h532v-222h-74q0 125 -49 125h-84q-33 0 -47 -9.5t-25.5 -68t-13.5 -157t-2 -303.5h123q57 0 57 108v15h70v-344h-70v8q0 117 -57 117h-123v-392q0 -119 2.5 -184t12 -104t23 -49.5 t38.5 -10.5h170q49 0 49 125h70v-219h-602zM121 1671l151 211h123l152 -211h-80l-135 146l-131 -146h-80z" />
<glyph unicode="&#xcb;" horiz-adv-x="669" d="M23 0v94h28q60 0 60 185v813q0 134 -2.5 203t-11.5 111.5t-22 53t-40 10.5h-12v95h532v-222h-74q0 125 -49 125h-84q-33 0 -47 -9.5t-25.5 -68t-13.5 -157t-2 -303.5h123q57 0 57 108v15h70v-344h-70v8q0 117 -57 117h-123v-392q0 -119 2.5 -184t12 -104t23 -49.5 t38.5 -10.5h170q49 0 49 125h70v-219h-602zM125 1780q0 86 76 86q34 0 54.5 -24.5t20.5 -61.5t-20.5 -61.5t-54.5 -24.5q-76 0 -76 86zM391 1780q0 36 21 61t55 25q32 0 54 -25t22 -61t-22 -61t-54 -25q-76 0 -76 86z" />
<glyph unicode="&#xcc;" horiz-adv-x="452" d="M61 0v96h21q23 0 37.5 12t21.5 36t9 49t2 63v930q0 170 -11.5 227t-58.5 57h-21v95h328v-95h-22q-41 0 -53.5 -42t-12.5 -164v-1006q0 -89 15 -125.5t55 -36.5h18v-96h-328zM63 1878h195l129 -211h-80z" />
<glyph unicode="&#xcd;" horiz-adv-x="452" d="M61 0v96h21q23 0 37.5 12t21.5 36t9 49t2 63v930q0 170 -11.5 227t-58.5 57h-21v95h328v-95h-22q-41 0 -53.5 -42t-12.5 -164v-1006q0 -89 15 -125.5t55 -36.5h18v-96h-328zM66 1667l127 211h194l-244 -211h-77z" />
<glyph unicode="&#xce;" horiz-adv-x="452" d="M18 1671l152 211h123l151 -211h-79l-136 146l-131 -146h-80zM61 0v96h21q23 0 37.5 12t21.5 36t9 49t2 63v930q0 170 -11.5 227t-58.5 57h-21v95h328v-95h-22q-41 0 -53.5 -42t-12.5 -164v-1006q0 -89 15 -125.5t55 -36.5h18v-96h-328z" />
<glyph unicode="&#xcf;" horiz-adv-x="452" d="M23 1780q0 86 75 86q34 0 55 -25t21 -61t-21 -61t-55 -25q-75 0 -75 86zM61 0v96h21q23 0 37.5 12t21.5 36t9 49t2 63v930q0 170 -11.5 227t-58.5 57h-21v95h328v-95h-22q-41 0 -53.5 -42t-12.5 -164v-1006q0 -89 15 -125.5t55 -36.5h18v-96h-328zM289 1780q0 36 21 61 t55 25q32 0 53.5 -25t21.5 -61t-21.5 -61t-53.5 -25q-76 0 -76 86z" />
<glyph unicode="&#xd0;" horiz-adv-x="790" d="M25 0v94h18q19 0 29.5 2t21 10.5t15 28t4.5 51.5v545h-72v121h72v526q0 56 -16 74t-52 18h-20v95h385q346 0 346 -697q0 -179 -10.5 -316t-32.5 -231.5t-50.5 -158t-70 -99t-86 -49.5t-103.5 -14h-378zM256 186q0 -35 16.5 -63.5t36.5 -28.5h43q66 0 112 55.5t70.5 161.5 t35 235t10.5 302q0 71 -2 131t-8.5 125.5t-17 117t-28 99.5t-41 79.5t-57 50.5t-74.5 19h-37q-59 0 -59 -92v-526h158v-121h-158v-545z" />
<glyph unicode="&#xd1;" horiz-adv-x="854" d="M33 0v94h18q40 0 54 22t14 97v1083q0 76 -8 114.5t-20.5 49t-37.5 10.5h-20v95h256l366 -1237v991q0 89 -14 120t-47 31h-25v95h256v-95h-16q-76 0 -76 -137v-1087q0 -120 15 -246h-148l-405 1329v-1116q0 -58 19.5 -88.5t51.5 -30.5h19v-94h-252zM195 1731q2 77 33 117 t102 40q43 0 78.5 -17t55.5 -37t48.5 -37t60.5 -17q19 0 28 18.5t13 67.5h45v-31q0 -55 -29.5 -92t-88.5 -37q-35 0 -63.5 11.5t-48 28t-38 33.5t-43.5 28.5t-55 11.5q-45 0 -49 -88h-49z" />
<glyph unicode="&#xd2;" d="M43 721q0 866 356 866q125 0 205 -75t121 -244.5t41 -442.5q0 -848 -385 -848q-84 0 -143.5 33.5t-105 115.5t-67.5 229.5t-22 365.5zM219 750q0 -85 1 -145t3.5 -129.5t8 -116.5t14.5 -96.5t22.5 -81t31.5 -57.5t43 -38t56 -12q189 0 189 704q0 82 -1 141.5t-4 131 t-8.5 122.5t-15 104.5t-23.5 89.5t-33 66t-45.5 44t-58.5 14q-180 0 -180 -741zM238 1878h194l129 -211h-80z" />
<glyph unicode="&#xd3;" d="M43 721q0 866 356 866q125 0 205 -75t121 -244.5t41 -442.5q0 -848 -385 -848q-84 0 -143.5 33.5t-105 115.5t-67.5 229.5t-22 365.5zM219 750q0 -85 1 -145t3.5 -129.5t8 -116.5t14.5 -96.5t22.5 -81t31.5 -57.5t43 -38t56 -12q189 0 189 704q0 82 -1 141.5t-4 131 t-8.5 122.5t-15 104.5t-23.5 89.5t-33 66t-45.5 44t-58.5 14q-180 0 -180 -741zM240 1667l127 211h194l-244 -211h-77z" />
<glyph unicode="&#xd4;" d="M43 721q0 866 356 866q125 0 205 -75t121 -244.5t41 -442.5q0 -848 -385 -848q-84 0 -143.5 33.5t-105 115.5t-67.5 229.5t-22 365.5zM186 1671l152 211h123l151 -211h-80l-135 146l-131 -146h-80zM219 750q0 -85 1 -145t3.5 -129.5t8 -116.5t14.5 -96.5t22.5 -81 t31.5 -57.5t43 -38t56 -12q189 0 189 704q0 82 -1 141.5t-4 131t-8.5 122.5t-15 104.5t-23.5 89.5t-33 66t-45.5 44t-58.5 14q-180 0 -180 -741z" />
<glyph unicode="&#xd5;" d="M43 721q0 866 356 866q125 0 205 -75t121 -244.5t41 -442.5q0 -848 -385 -848q-84 0 -143.5 33.5t-105 115.5t-67.5 229.5t-22 365.5zM166 1731q2 77 33 117t102 40q43 0 79 -17t55.5 -37t48.5 -37t61 -17q19 0 28 18.5t13 67.5h45v-31q0 -54 -30 -91.5t-89 -37.5 q-35 0 -63.5 11.5t-48 28t-38 33.5t-43.5 28.5t-55 11.5q-45 0 -49 -88h-49zM219 750q0 -85 1 -145t3.5 -129.5t8 -116.5t14.5 -96.5t22.5 -81t31.5 -57.5t43 -38t56 -12q189 0 189 704q0 82 -1 141.5t-4 131t-8.5 122.5t-15 104.5t-23.5 89.5t-33 66t-45.5 44t-58.5 14 q-180 0 -180 -741z" />
<glyph unicode="&#xd6;" d="M43 721q0 866 356 866q125 0 205 -75t121 -244.5t41 -442.5q0 -848 -385 -848q-84 0 -143.5 33.5t-105 115.5t-67.5 229.5t-22 365.5zM190 1780q0 86 76 86q34 0 55 -25t21 -61t-21 -61t-55 -25q-76 0 -76 86zM219 750q0 -85 1 -145t3.5 -129.5t8 -116.5t14.5 -96.5 t22.5 -81t31.5 -57.5t43 -38t56 -12q189 0 189 704q0 82 -1 141.5t-4 131t-8.5 122.5t-15 104.5t-23.5 89.5t-33 66t-45.5 44t-58.5 14q-180 0 -180 -741zM457 1780q0 37 20.5 61.5t54.5 24.5q32 0 54 -25t22 -61t-22 -61t-54 -25q-75 0 -75 86z" />
<glyph unicode="&#xd8;" d="M43 721q0 866 356 866q90 0 158 -39l4 17h109l-29 -99q125 -178 125 -641q0 -848 -385 -848q-76 0 -143 31l-2 -8h-105l23 86q-111 168 -111 635zM219 750q0 -294 12 -385l287 1044q-43 82 -119 82q-180 0 -180 -741zM276 156q46 -82 123 -82q189 0 189 704 q0 288 -19 434z" />
<glyph unicode="&#xd9;" horiz-adv-x="858" d="M18 1470v95h342v-95h-38q-52 0 -52 -92v-934q0 -89 4.5 -147t16 -104t34 -70.5t55.5 -36.5t83 -12q84 0 130 31.5t67.5 111.5t21.5 227v934q0 56 -12.5 74t-48.5 18h-35v95h254v-95h-29q-32 0 -42.5 -17.5t-10.5 -74.5v-956q0 -106 -15 -185t-48.5 -139t-91.5 -90.5 t-140 -30.5q-87 0 -150.5 22t-112.5 73.5t-73.5 144t-24.5 227.5v934q0 58 -10.5 75t-50.5 17h-23zM268 1878h195l129 -211h-80z" />
<glyph unicode="&#xda;" horiz-adv-x="858" d="M18 1470v95h342v-95h-38q-52 0 -52 -92v-934q0 -89 4.5 -147t16 -104t34 -70.5t55.5 -36.5t83 -12q84 0 130 31.5t67.5 111.5t21.5 227v934q0 56 -12.5 74t-48.5 18h-35v95h254v-95h-29q-32 0 -42.5 -17.5t-10.5 -74.5v-956q0 -106 -15 -185t-48.5 -139t-91.5 -90.5 t-140 -30.5q-87 0 -150.5 22t-112.5 73.5t-73.5 144t-24.5 227.5v934q0 58 -10.5 75t-50.5 17h-23zM268 1667l127 211h195l-244 -211h-78z" />
<glyph unicode="&#xdb;" horiz-adv-x="858" d="M18 1470v95h342v-95h-38q-52 0 -52 -92v-934q0 -89 4.5 -147t16 -104t34 -70.5t55.5 -36.5t83 -12q84 0 130 31.5t67.5 111.5t21.5 227v934q0 56 -12.5 74t-48.5 18h-35v95h254v-95h-29q-32 0 -42.5 -17.5t-10.5 -74.5v-956q0 -106 -15 -185t-48.5 -139t-91.5 -90.5 t-140 -30.5q-87 0 -150.5 22t-112.5 73.5t-73.5 144t-24.5 227.5v934q0 58 -10.5 75t-50.5 17h-23zM215 1671l152 211h122l152 -211h-80l-135 146l-131 -146h-80z" />
<glyph unicode="&#xdc;" horiz-adv-x="858" d="M18 1470v95h342v-95h-38q-52 0 -52 -92v-934q0 -89 4.5 -147t16 -104t34 -70.5t55.5 -36.5t83 -12q84 0 130 31.5t67.5 111.5t21.5 227v934q0 56 -12.5 74t-48.5 18h-35v95h254v-95h-29q-32 0 -42.5 -17.5t-10.5 -74.5v-956q0 -106 -15 -185t-48.5 -139t-91.5 -90.5 t-140 -30.5q-87 0 -150.5 22t-112.5 73.5t-73.5 144t-24.5 227.5v934q0 58 -10.5 75t-50.5 17h-23zM219 1780q0 86 76 86q34 0 55 -25t21 -61t-21 -61t-55 -25q-76 0 -76 86zM485 1780q0 36 21 61t55 25q32 0 54 -25t22 -61t-22 -61t-54 -25q-76 0 -76 86z" />
<glyph unicode="&#xdd;" horiz-adv-x="827" d="M12 1468v97h353v-97l-50 2q-28 0 -28 -43q1 -4 2.5 -24.5t7.5 -40.5l162 -563l166 602q8 21 8 43q0 26 -37 26h-41v95h264v-95h-26q-26 0 -35 -22l-269 -803v-477q0 -72 52 -72h18v-96h-293v96h23q26 0 38.5 16t12.5 56v477l-254 760q-14 39 -27 52t-39 13q-6 0 -8 -2z M252 1667l127 211h194l-243 -211h-78z" />
<glyph unicode="&#xde;" horiz-adv-x="727" d="M20 1470v95h328v-95h-22q-30 0 -42.5 -12.5t-19 -61.5t-6.5 -157h156q291 0 291 -360q0 -457 -291 -457h-156v-137q0 -101 16.5 -145t59.5 -44h16v-96h-327v96h16q40 0 56 25t16 100v1014q0 134 -13.5 184.5t-56.5 50.5h-21zM258 524h107q163 0 163 322q0 86 -6.5 141.5 t-17 87.5t-33.5 47.5t-44 19t-62 3.5h-35q-44 0 -58 -27.5t-14 -109.5v-484z" />
<glyph unicode="&#xdf;" horiz-adv-x="655" d="M6 0v94h14q21 0 40.5 26t19.5 66v1155q0 165 65 256t177 91q72 0 124.5 -28.5t82.5 -80.5t43.5 -115t13.5 -141q0 -162 -32 -251t-97 -144q70 -36 112.5 -156t42.5 -291q0 -212 -82.5 -350.5t-207.5 -138.5v94q60 31 86 112.5t26 276.5q0 383 -100 383h-45v92h47 q33 0 52 29.5t29.5 109.5t10.5 224q0 157 -27 217.5t-79 60.5q-33 0 -59.5 -43.5t-26.5 -109.5v-1438h-230z" />
<glyph unicode="&#xe0;" horiz-adv-x="722" d="M23 217q0 63 29.5 122t73.5 101.5t105 82t111.5 63.5t106.5 45v96q0 53 -8 93.5t-19.5 63.5t-26.5 37t-27 18.5t-24 4.5q-93 0 -133 -61q34 -13 55 -44.5t21 -76.5q0 -58 -30.5 -94.5t-80.5 -36.5q-46 0 -76 37.5t-30 101.5q0 128 86.5 199t208.5 71q124 0 182.5 -72 t58.5 -229v-587q0 -48 33 -48q27 0 27 74v12q0 2 -1 14t-1 21h71v-78q0 -68 -35.5 -114.5t-95.5 -46.5q-87 0 -133 104q-113 -113 -238 -113q-97 0 -153.5 60.5t-56.5 179.5zM164 1333h194l129 -211h-79zM180 256q0 -62 36.5 -109t80.5 -47q50 0 93 36.5t56 78.5v334 q-46 -21 -74.5 -36t-69.5 -43t-64 -55.5t-40.5 -69t-17.5 -89.5z" />
<glyph unicode="&#xe1;" horiz-adv-x="722" d="M23 217q0 63 29.5 122t73.5 101.5t105 82t111.5 63.5t106.5 45v96q0 53 -8 93.5t-19.5 63.5t-26.5 37t-27 18.5t-24 4.5q-93 0 -133 -61q34 -13 55 -44.5t21 -76.5q0 -58 -30.5 -94.5t-80.5 -36.5q-46 0 -76 37.5t-30 101.5q0 128 86.5 199t208.5 71q124 0 182.5 -72 t58.5 -229v-587q0 -48 33 -48q27 0 27 74v12q0 2 -1 14t-1 21h71v-78q0 -68 -35.5 -114.5t-95.5 -46.5q-87 0 -133 104q-113 -113 -238 -113q-97 0 -153.5 60.5t-56.5 179.5zM180 256q0 -62 36.5 -109t80.5 -47q50 0 93 36.5t56 78.5v334q-46 -21 -74.5 -36t-69.5 -43 t-64 -55.5t-40.5 -69t-17.5 -89.5zM240 1122l127 211h194l-244 -211h-77z" />
<glyph unicode="&#xe2;" horiz-adv-x="722" d="M23 217q0 63 29.5 122t73.5 101.5t105 82t111.5 63.5t106.5 45v96q0 53 -8 93.5t-19.5 63.5t-26.5 37t-27 18.5t-24 4.5q-93 0 -133 -61q34 -13 55 -44.5t21 -76.5q0 -58 -30.5 -94.5t-80.5 -36.5q-46 0 -76 37.5t-30 101.5q0 128 86.5 199t208.5 71q124 0 182.5 -72 t58.5 -229v-587q0 -48 33 -48q27 0 27 74v12q0 2 -1 14t-1 21h71v-78q0 -68 -35.5 -114.5t-95.5 -46.5q-87 0 -133 104q-113 -113 -238 -113q-97 0 -153.5 60.5t-56.5 179.5zM150 1126l151 211h123l151 -211h-79l-136 146l-131 -146h-79zM180 256q0 -62 36.5 -109t80.5 -47 q50 0 93 36.5t56 78.5v334q-46 -21 -74.5 -36t-69.5 -43t-64 -55.5t-40.5 -69t-17.5 -89.5z" />
<glyph unicode="&#xe3;" horiz-adv-x="722" d="M23 217q0 63 29.5 122t73.5 101.5t105 82t111.5 63.5t106.5 45v96q0 53 -8 93.5t-19.5 63.5t-26.5 37t-27 18.5t-24 4.5q-93 0 -133 -61q34 -13 55 -44.5t21 -76.5q0 -58 -30.5 -94.5t-80.5 -36.5q-46 0 -76 37.5t-30 101.5q0 128 86.5 199t208.5 71q124 0 182.5 -72 t58.5 -229v-587q0 -48 33 -48q27 0 27 74v12q0 2 -1 14t-1 21h71v-78q0 -68 -35.5 -114.5t-95.5 -46.5q-87 0 -133 104q-113 -113 -238 -113q-97 0 -153.5 60.5t-56.5 179.5zM127 1186q2 77 33 117t102 40q43 0 79 -17t55.5 -37t48.5 -37t61 -17q19 0 28 18.5t13 67.5h45 v-31q0 -54 -30 -91.5t-89 -37.5q-35 0 -63.5 11.5t-48 28.5t-38 33.5t-43.5 28t-55 11.5q-45 0 -49 -88h-49zM180 256q0 -62 36.5 -109t80.5 -47q50 0 93 36.5t56 78.5v334q-46 -21 -74.5 -36t-69.5 -43t-64 -55.5t-40.5 -69t-17.5 -89.5z" />
<glyph unicode="&#xe4;" horiz-adv-x="722" d="M23 217q0 63 29.5 122t73.5 101.5t105 82t111.5 63.5t106.5 45v96q0 53 -8 93.5t-19.5 63.5t-26.5 37t-27 18.5t-24 4.5q-93 0 -133 -61q34 -13 55 -44.5t21 -76.5q0 -58 -30.5 -94.5t-80.5 -36.5q-46 0 -76 37.5t-30 101.5q0 128 86.5 199t208.5 71q124 0 182.5 -72 t58.5 -229v-587q0 -48 33 -48q27 0 27 74v12q0 2 -1 14t-1 21h71v-78q0 -68 -35.5 -114.5t-95.5 -46.5q-87 0 -133 104q-113 -113 -238 -113q-97 0 -153.5 60.5t-56.5 179.5zM154 1235q0 86 75 86q34 0 55 -25t21 -61t-21 -61t-55 -25q-75 0 -75 86zM180 256 q0 -62 36.5 -109t80.5 -47q50 0 93 36.5t56 78.5v334q-46 -21 -74.5 -36t-69.5 -43t-64 -55.5t-40.5 -69t-17.5 -89.5zM420 1235q0 36 21 61t55 25q32 0 53.5 -25t21.5 -61t-21.5 -61t-53.5 -25q-76 0 -76 86z" />
<glyph unicode="&#xe5;" horiz-adv-x="722" d="M23 217q0 63 29.5 122t73.5 101.5t105 82t111.5 63.5t106.5 45v96q0 53 -8 93.5t-19.5 63.5t-26.5 37t-27 18.5t-24 4.5q-93 0 -133 -61q34 -13 55 -44.5t21 -76.5q0 -58 -30.5 -94.5t-80.5 -36.5q-46 0 -76 37.5t-30 101.5q0 128 86.5 199t208.5 71q124 0 182.5 -72 t58.5 -229v-587q0 -48 33 -48q27 0 27 74v12q0 2 -1 14t-1 21h71v-78q0 -68 -35.5 -114.5t-95.5 -46.5q-87 0 -133 104q-113 -113 -238 -113q-97 0 -153.5 60.5t-56.5 179.5zM180 256q0 -62 36.5 -109t80.5 -47q50 0 93 36.5t56 78.5v334q-46 -21 -74.5 -36t-69.5 -43 t-64 -55.5t-40.5 -69t-17.5 -89.5zM195 1163q0 62 48.5 102t116.5 40q69 0 118.5 -40t49.5 -102t-49.5 -101.5t-118.5 -39.5q-68 0 -116.5 40t-48.5 101zM305 1157q0 -92 55 -92q56 0 56 92q0 94 -56 94q-55 0 -55 -94z" />
<glyph unicode="&#xe6;" horiz-adv-x="1038" d="M33 248q0 60 30 115t71.5 93t106 75t110.5 57t108 43v96q0 65 -11.5 111.5t-29.5 67.5t-34 29.5t-32 8.5q-93 0 -133 -61q34 -13 55 -44.5t21 -76.5q0 -58 -30 -94.5t-79 -36.5q-48 0 -78 37t-30 102q0 127 87.5 198.5t207.5 71.5q129 0 182 -84q59 86 172 86 q141 0 218 -111t77 -372h-416q0 -105 6.5 -182.5t23.5 -148.5t51 -108.5t85 -37.5q70 0 122.5 47.5t66.5 116.5l45 -10q-13 -109 -82 -184t-185 -75q-146 0 -211 152q-62 -73 -118.5 -112.5t-130.5 -39.5q-122 0 -184 69.5t-62 201.5zM190 256q0 -60 37 -101.5t82 -41.5 q52 0 93.5 31t54.5 71v334q-46 -20 -77 -36t-70 -43t-63 -55t-40.5 -69.5t-16.5 -89.5zM606 651h252q0 155 -27 225t-96 70q-55 0 -89 -75t-40 -220z" />
<glyph unicode="&#xe7;" horiz-adv-x="604" d="M31 555q0 124 29.5 220.5t79 153t108 85t123.5 28.5q99 0 160 -63.5t61 -177.5q0 -80 -30.5 -125t-80.5 -45q-49 0 -78.5 39t-29.5 100q0 53 17.5 79t58.5 46q-3 61 -95 61q-31 0 -55.5 -17t-46 -58.5t-33.5 -124t-12 -201.5q0 -247 40.5 -358t121.5 -111q153 0 194 164 l53 -14q-21 -111 -89.5 -185t-157.5 -74q-17 0 -41 3l-45 -93q28 4 51 4q35 0 56.5 -24t21.5 -62q0 -73 -50.5 -121.5t-144.5 -48.5v37q109 47 109 101q0 41 -72 41l-61 69l57 117q-219 88 -219 555z" />
<glyph unicode="&#xe8;" horiz-adv-x="659" d="M51 535q0 507 291 507q141 0 218 -111t77 -372h-416q0 -105 6.5 -182.5t23.5 -148.5t51 -108.5t85 -37.5q70 0 122 47t66 117l46 -10q-13 -109 -81.5 -184t-185.5 -75q-145 0 -224 138.5t-79 419.5zM135 1333h195l129 -211h-80zM221 651h254q0 154 -27.5 224.5 t-97.5 70.5q-55 0 -89 -75t-40 -220z" />
<glyph unicode="&#xe9;" horiz-adv-x="659" d="M51 535q0 507 291 507q141 0 218 -111t77 -372h-416q0 -105 6.5 -182.5t23.5 -148.5t51 -108.5t85 -37.5q70 0 122 47t66 117l46 -10q-13 -109 -81.5 -184t-185.5 -75q-145 0 -224 138.5t-79 419.5zM221 651h254q0 154 -27.5 224.5t-97.5 70.5q-55 0 -89 -75t-40 -220z M229 1122l127 211h195l-244 -211h-78z" />
<glyph unicode="&#xea;" horiz-adv-x="659" d="M51 535q0 507 291 507q141 0 218 -111t77 -372h-416q0 -105 6.5 -182.5t23.5 -148.5t51 -108.5t85 -37.5q70 0 122 47t66 117l46 -10q-13 -109 -81.5 -184t-185.5 -75q-145 0 -224 138.5t-79 419.5zM139 1126l152 211h123l151 -211h-80l-135 146l-131 -146h-80zM221 651 h254q0 154 -27.5 224.5t-97.5 70.5q-55 0 -89 -75t-40 -220z" />
<glyph unicode="&#xeb;" horiz-adv-x="659" d="M51 535q0 507 291 507q141 0 218 -111t77 -372h-416q0 -105 6.5 -182.5t23.5 -148.5t51 -108.5t85 -37.5q70 0 122 47t66 117l46 -10q-13 -109 -81.5 -184t-185.5 -75q-145 0 -224 138.5t-79 419.5zM133 1235q0 86 76 86q34 0 55 -25t21 -61t-21 -61t-55 -25 q-76 0 -76 86zM221 651h254q0 154 -27.5 224.5t-97.5 70.5q-55 0 -89 -75t-40 -220zM399 1235q0 36 21 61t55 25q32 0 54 -25t22 -61t-22 -61t-54 -25q-76 0 -76 86z" />
<glyph unicode="&#xec;" horiz-adv-x="423" d="M-41 1333h195l129 -211h-80zM39 0v96h24q46 0 56 38.5t10 230.5v268q0 126 -7 187.5t-22.5 82.5t-46.5 21h-14v96h252q-8 -68 -8 -283v-372q0 -188 10.5 -228.5t58.5 -40.5h15v-96h-328z" />
<glyph unicode="&#xed;" horiz-adv-x="423" d="M39 0v96h24q46 0 56 38.5t10 230.5v268q0 126 -7 187.5t-22.5 82.5t-46.5 21h-14v96h252q-8 -68 -8 -283v-372q0 -188 10.5 -228.5t58.5 -40.5h15v-96h-328zM96 1122l127 211h195l-244 -211h-78z" />
<glyph unicode="&#xee;" horiz-adv-x="423" d="M-18 1126l151 211h123l152 -211h-80l-135 146l-132 -146h-79zM39 0v96h24q46 0 56 38.5t10 230.5v268q0 126 -7 187.5t-22.5 82.5t-46.5 21h-14v96h252q-8 -68 -8 -283v-372q0 -188 10.5 -228.5t58.5 -40.5h15v-96h-328z" />
<glyph unicode="&#xef;" horiz-adv-x="423" d="M-14 1235q0 86 75 86q34 0 55 -25t21 -61t-21 -61t-55 -25q-75 0 -75 86zM39 0v96h24q46 0 56 38.5t10 230.5v268q0 126 -7 187.5t-22.5 82.5t-46.5 21h-14v96h252q-8 -68 -8 -283v-372q0 -188 10.5 -228.5t58.5 -40.5h15v-96h-328zM252 1235q0 36 21 61t55 25 q32 0 53.5 -25t21.5 -61t-21.5 -61t-53.5 -25q-76 0 -76 86z" />
<glyph unicode="&#xf0;" horiz-adv-x="651" d="M39 496q0 546 246 546q60 0 98 -21t76 -75q-5 124 -24.5 224t-46 166t-67.5 120t-78.5 86t-88.5 64l8 57q58 -16 104.5 -39t95 -63.5t85.5 -96.5t70 -140.5t54.5 -192t34 -254t12.5 -324.5q0 -257 -81 -416.5t-220 -159.5q-125 0 -201.5 140t-76.5 379zM215 520 q0 -223 28 -334.5t74 -111.5q71 0 106.5 98t35.5 279v432q-38 38 -59 50.5t-54 12.5q-71 0 -101 -102.5t-30 -323.5z" />
<glyph unicode="&#xf1;" horiz-adv-x="757" d="M16 924v96h45q49 0 82 -23.5t64 -78.5q63 124 199 124q116 0 192 -76t76 -218v-492q0 -97 11 -128.5t46 -31.5h10v-96h-319v96h29q34 0 42.5 30.5t8.5 129.5v492q0 186 -117 186q-22 0 -39.5 -6t-29.5 -20t-21 -27.5t-14.5 -39.5t-8.5 -44.5t-4 -53t-1.5 -54t-0.5 -58.5 v-8v-267q0 -182 5.5 -222t31.5 -40h43v-94h-328v96h25q22 0 32 6t17 37t8.5 80t1.5 150v268v29q0 179 -10 216t-43 41l-12 1h-21zM123 1186q2 77 33 117t102 40q43 0 79 -17t55.5 -37t48.5 -37t61 -17q19 0 28 18.5t13 67.5h45v-31q0 -54 -30 -91.5t-89 -37.5 q-35 0 -63.5 11.5t-48 28.5t-38 33.5t-43.5 28t-55 11.5q-45 0 -49 -88h-49z" />
<glyph unicode="&#xf2;" horiz-adv-x="632" d="M23 520q0 522 290 522q65 0 116 -26t91.5 -84t62 -162t21.5 -250q0 -543 -291 -543q-65 0 -115 26.5t-91 86.5t-62.5 168.5t-21.5 261.5zM98 1333h195l129 -211h-80zM205 502q0 -274 17 -351t91 -77q26 0 43.5 7t30.5 28.5t20 48.5t11 81t5 111t1 152q0 273 -19 358.5 t-92 85.5q-74 0 -91 -83t-17 -361z" />
<glyph unicode="&#xf3;" horiz-adv-x="632" d="M23 520q0 522 290 522q65 0 116 -26t91.5 -84t62 -162t21.5 -250q0 -543 -291 -543q-65 0 -115 26.5t-91 86.5t-62.5 168.5t-21.5 261.5zM176 1122l127 211h195l-244 -211h-78zM205 502q0 -274 17 -351t91 -77q26 0 43.5 7t30.5 28.5t20 48.5t11 81t5 111t1 152 q0 273 -19 358.5t-92 85.5q-74 0 -91 -83t-17 -361z" />
<glyph unicode="&#xf4;" horiz-adv-x="632" d="M23 520q0 522 290 522q65 0 116 -26t91.5 -84t62 -162t21.5 -250q0 -543 -291 -543q-65 0 -115 26.5t-91 86.5t-62.5 168.5t-21.5 261.5zM102 1126l152 211h123l151 -211h-79l-136 146l-131 -146h-80zM205 502q0 -274 17 -351t91 -77q26 0 43.5 7t30.5 28.5t20 48.5 t11 81t5 111t1 152q0 273 -19 358.5t-92 85.5q-74 0 -91 -83t-17 -361z" />
<glyph unicode="&#xf5;" horiz-adv-x="632" d="M23 520q0 522 290 522q65 0 116 -26t91.5 -84t62 -162t21.5 -250q0 -543 -291 -543q-65 0 -115 26.5t-91 86.5t-62.5 168.5t-21.5 261.5zM82 1186q2 77 33 117t102 40q43 0 79 -17t55.5 -37t48.5 -37t61 -17q19 0 28 18.5t13 67.5h45v-31q0 -54 -30 -91.5t-89 -37.5 q-35 0 -63.5 11.5t-48 28.5t-38 33.5t-43.5 28t-55 11.5q-45 0 -49 -88h-49zM205 502q0 -274 17 -351t91 -77q26 0 43.5 7t30.5 28.5t20 48.5t11 81t5 111t1 152q0 273 -19 358.5t-92 85.5q-74 0 -91 -83t-17 -361z" />
<glyph unicode="&#xf6;" horiz-adv-x="632" d="M23 520q0 522 290 522q65 0 116 -26t91.5 -84t62 -162t21.5 -250q0 -543 -291 -543q-65 0 -115 26.5t-91 86.5t-62.5 168.5t-21.5 261.5zM106 1235q0 86 76 86q34 0 55 -25t21 -61t-21 -61t-55 -25q-76 0 -76 86zM205 502q0 -274 17 -351t91 -77q26 0 43.5 7t30.5 28.5 t20 48.5t11 81t5 111t1 152q0 273 -19 358.5t-92 85.5q-74 0 -91 -83t-17 -361zM373 1235q0 36 21 61t55 25q32 0 53.5 -25t21.5 -61t-21.5 -61t-53.5 -25q-76 0 -76 86z" />
<glyph unicode="&#xf8;" horiz-adv-x="632" d="M23 520q0 522 290 522q67 0 113 -24l18 45h109l-45 -115q96 -122 96 -428q0 -543 -291 -543q-86 0 -155 54l-19 -51h-104l55 143q-67 137 -67 397zM205 426l182 483q-21 37 -74 37q-74 0 -91 -83t-17 -361v-76zM215 178q12 -59 33.5 -81.5t64.5 -22.5q26 0 43.5 7 t30.5 28.5t20 48.5t11 81t5 111t1 152q0 158 -2 215z" />
<glyph unicode="&#xf9;" horiz-adv-x="704" d="M16 924v96h328v-96h-35q-33 0 -42 -39t-9 -142v-448q0 -121 30.5 -171t94.5 -50q62 0 91.5 50t29.5 171v448q0 104 -9.5 142.5t-45.5 38.5h-27v96h270v-96h-28q-25 0 -36.5 -26.5t-11.5 -100.5v-504q0 -316 -274 -316q-114 0 -181 80t-67 236v504q0 73 -11 100t-40 27 h-27zM106 1333h195l129 -211h-80z" />
<glyph unicode="&#xfa;" horiz-adv-x="704" d="M16 924v96h328v-96h-35q-33 0 -42 -39t-9 -142v-448q0 -121 30.5 -171t94.5 -50q62 0 91.5 50t29.5 171v448q0 104 -9.5 142.5t-45.5 38.5h-27v96h270v-96h-28q-25 0 -36.5 -26.5t-11.5 -100.5v-504q0 -316 -274 -316q-114 0 -181 80t-67 236v504q0 73 -11 100t-40 27 h-27zM254 1122l127 211h194l-243 -211h-78z" />
<glyph unicode="&#xfb;" horiz-adv-x="704" d="M16 924v96h328v-96h-35q-33 0 -42 -39t-9 -142v-448q0 -121 30.5 -171t94.5 -50q62 0 91.5 50t29.5 171v448q0 104 -9.5 142.5t-45.5 38.5h-27v96h270v-96h-28q-25 0 -36.5 -26.5t-11.5 -100.5v-504q0 -316 -274 -316q-114 0 -181 80t-67 236v504q0 73 -11 100t-40 27 h-27zM158 1126l151 211h123l152 -211h-80l-135 146l-131 -146h-80z" />
<glyph unicode="&#xfc;" horiz-adv-x="704" d="M16 924v96h328v-96h-35q-33 0 -42 -39t-9 -142v-448q0 -121 30.5 -171t94.5 -50q62 0 91.5 50t29.5 171v448q0 104 -9.5 142.5t-45.5 38.5h-27v96h270v-96h-28q-25 0 -36.5 -26.5t-11.5 -100.5v-504q0 -316 -274 -316q-114 0 -181 80t-67 236v504q0 73 -11 100t-40 27 h-27zM143 1235q0 86 76 86q34 0 55 -25t21 -61t-21 -61t-55 -25q-76 0 -76 86zM410 1235q0 37 20.5 61.5t54.5 24.5q32 0 54 -25t22 -61t-22 -61t-54 -25q-75 0 -75 86z" />
<glyph unicode="&#xfd;" horiz-adv-x="655" d="M-6 -301q0 81 34 120.5t91 39.5q52 0 79 -39t27 -103q0 -59 -28 -95t-76 -42q9 -28 19.5 -39.5t37.5 -11.5q39 0 73 65.5t50 190.5l25 192l-236 881q-12 41 -23 53.5t-34 12.5h-17v96h326v-96h-35q-43 0 -43 -31q0 -19 4 -47l119 -582l105 555q8 27 8 60q0 45 -62 45h-18 v96h225v-96h-24q-23 0 -33 -15.5t-15 -50.5l-184 -1073q-56 -352 -233 -352q-68 0 -115 68.5t-47 197.5zM223 1122l127 211h195l-244 -211h-78z" />
<glyph unicode="&#xfe;" horiz-adv-x="714" d="M14 1567v96h254q-16 -629 -16 -709q74 88 160 88q87 0 142 -42t86.5 -151.5t31.5 -293.5q0 -93 -3.5 -163t-13 -139t-27 -116.5t-44 -85.5t-66.5 -56t-92 -18q-116 0 -170 97q0 -128 6.5 -271.5t11.5 -187.5q5 -33 22 -48.5t54 -15.5v-96h-334v96q56 0 70 38.5t14 179.5 v983q0 44 -4 374t-4 377q-6 41 -17.5 53.5t-43.5 12.5q-15 0 -17 -2zM258 215q36 -143 115 -143q29 0 48.5 19t35 66.5t23 136t7.5 220.5q0 259 -18 344.5t-86 85.5q-47 0 -78 -43.5t-47 -99.5v-586z" />
<glyph unicode="&#xff;" horiz-adv-x="655" d="M-6 -301q0 81 34 120.5t91 39.5q52 0 79 -39t27 -103q0 -59 -28 -95t-76 -42q9 -28 19.5 -39.5t37.5 -11.5q39 0 73 65.5t50 190.5l25 192l-236 881q-12 41 -23 53.5t-34 12.5h-17v96h326v-96h-35q-43 0 -43 -31q0 -19 4 -47l119 -582l105 555q8 27 8 60q0 45 -62 45h-18 v96h225v-96h-24q-23 0 -33 -15.5t-15 -50.5l-184 -1073q-56 -352 -233 -352q-68 0 -115 68.5t-47 197.5zM141 1235q0 86 76 86q34 0 55 -25t21 -61t-21 -61t-55 -25q-76 0 -76 86zM408 1235q0 37 20.5 61.5t54.5 24.5q32 0 54 -25t22 -61t-22 -61t-54 -25q-75 0 -75 86z" />
<glyph unicode="&#x152;" horiz-adv-x="1122" d="M43 721q0 866 356 866q67 0 119 -22h516v-222h-71q0 125 -50 125h-84q-33 0 -47 -9.5t-25.5 -68t-13.5 -157t-2 -303.5h123q58 0 58 108v15h69v-344h-69v8q0 117 -58 117h-123v-392q0 -81 1 -132t4 -93t8 -63.5t14 -36.5t20 -19t29 -4h170q47 0 47 125h72v-219h-602v6 q-63 -29 -123 -29q-84 0 -143.5 33.5t-105 115.5t-67.5 229.5t-22 365.5zM219 750q0 -85 1 -145t3.5 -129.5t8 -116.5t14.5 -96.5t22.5 -81t31.5 -57.5t43 -38t56 -12q189 0 189 704q0 82 -1 141.5t-4 131t-8.5 122.5t-15 104.5t-23.5 89.5t-33 66t-45.5 44t-58.5 14 q-180 0 -180 -741z" />
<glyph unicode="&#x153;" horiz-adv-x="1034" d="M23 520q0 522 290 522q131 0 191 -112q72 112 207 112q141 0 218 -111t77 -372h-414q0 -84 3 -147.5t13.5 -128.5t28 -106.5t47.5 -68t72 -26.5q70 0 122 47t66 117l45 -10q-13 -109 -81 -184t-185 -75q-141 0 -217 125q-57 -125 -193 -125q-65 0 -115 26.5t-91 86.5 t-62.5 168.5t-21.5 261.5zM205 502q0 -274 17 -351t91 -77q26 0 43.5 7t30.5 28.5t20 48.5t11 81t5 111t1 152q0 273 -19 358.5t-92 85.5q-74 0 -91 -83t-17 -361zM592 651h252q0 154 -27.5 224.5t-97.5 70.5q-55 0 -89 -75t-38 -220z" />
<glyph unicode="&#x178;" horiz-adv-x="827" d="M12 1468v97h353v-97l-50 2q-28 0 -28 -43q1 -4 2.5 -24.5t7.5 -40.5l162 -563l166 602q8 21 8 43q0 26 -37 26h-41v95h264v-95h-26q-26 0 -35 -22l-269 -803v-477q0 -72 52 -72h18v-96h-293v96h23q26 0 38.5 16t12.5 56v477l-254 760q-14 39 -27 52t-39 13q-6 0 -8 -2z M238 1780q0 86 75 86q34 0 55 -25t21 -61t-21 -61t-55 -25q-75 0 -75 86zM504 1780q0 36 21 61t55 25q32 0 53.5 -25t21.5 -61t-21.5 -61t-53.5 -25q-76 0 -76 86z" />
<glyph unicode="&#x2c6;" horiz-adv-x="462" d="M37 1126l151 211h123l152 -211h-80l-135 146l-131 -146h-80z" />
<glyph unicode="&#x2dc;" horiz-adv-x="507" d="M43 1186q2 77 33 117t102 40q43 0 79 -17t55.5 -37t48.5 -37t61 -17q19 0 28 18.5t13 67.5h45v-31q0 -54 -30 -91.5t-89 -37.5q-35 0 -63.5 11.5t-48 28.5t-38 33.5t-43.5 28t-55 11.5q-45 0 -49 -88h-49z" />
<glyph unicode="&#x2000;" horiz-adv-x="944" />
<glyph unicode="&#x2001;" horiz-adv-x="1888" />
<glyph unicode="&#x2002;" horiz-adv-x="944" />
<glyph unicode="&#x2003;" horiz-adv-x="1888" />
<glyph unicode="&#x2004;" horiz-adv-x="629" />
<glyph unicode="&#x2005;" horiz-adv-x="472" />
<glyph unicode="&#x2006;" horiz-adv-x="314" />
<glyph unicode="&#x2007;" horiz-adv-x="314" />
<glyph unicode="&#x2008;" horiz-adv-x="236" />
<glyph unicode="&#x2009;" horiz-adv-x="377" />
<glyph unicode="&#x200a;" horiz-adv-x="104" />
<glyph unicode="&#x2010;" horiz-adv-x="563" d="M41 485v121h479v-121h-479z" />
<glyph unicode="&#x2011;" horiz-adv-x="563" d="M41 485v121h479v-121h-479z" />
<glyph unicode="&#x2012;" horiz-adv-x="563" d="M41 485v121h479v-121h-479z" />
<glyph unicode="&#x2013;" horiz-adv-x="712" d="M41 485v121h635v-121h-635z" />
<glyph unicode="&#x2014;" horiz-adv-x="1226" d="M41 485v121h1143v-121h-1143z" />
<glyph unicode="&#x2018;" horiz-adv-x="268" d="M20 1573q0 66 30 108.5t81 42.5q47 0 78 -42t31 -107q0 -63 -26 -110.5t-67 -47.5q-20 0 -43 13q6 -98 93 -136l-9 -43q-45 0 -85.5 58t-61.5 132t-21 132z" />
<glyph unicode="&#x2019;" horiz-adv-x="258" d="M18 1575q0 65 30 107t81 42q49 0 79 -43t30 -108q0 -59 -21 -133t-61 -131.5t-84 -57.5l-11 43q90 38 93 136q-23 -13 -41 -13q-42 0 -68.5 47.5t-26.5 110.5z" />
<glyph unicode="&#x201a;" horiz-adv-x="258" d="M18 158q0 66 31 107.5t80 41.5q46 0 77.5 -42t31.5 -109q0 -58 -22 -133t-62 -133t-82 -58l-11 45q90 38 93 135q-21 -12 -41 -12q-43 0 -69 47t-26 111z" />
<glyph unicode="&#x201c;" horiz-adv-x="520" d="M14 1552q0 67 31.5 109.5t77.5 42.5t78 -41.5t32 -108.5q0 -63 -26 -110t-68 -47q-20 0 -41 12q3 -97 92 -135l-10 -43q-44 0 -84 57.5t-61 131t-21 132.5zM295 1552q0 65 32.5 108.5t78.5 43.5q49 0 79.5 -43t30.5 -107t-27 -110.5t-67 -46.5q-20 0 -41 12 q3 -97 90 -135l-8 -43q-45 0 -85.5 58.5t-61.5 132t-21 130.5z" />
<glyph unicode="&#x201d;" horiz-adv-x="524" d="M14 1575q0 64 30 106.5t79 42.5t78.5 -41t29.5 -110q0 -58 -22 -132t-61.5 -132t-81.5 -58l-9 43q87 38 93 136q-23 -13 -41 -13q-42 0 -68.5 47.5t-26.5 110.5zM295 1575q0 62 29.5 105.5t81.5 43.5t81 -44t29 -107q0 -58 -21.5 -132t-62 -132t-84.5 -58l-8 43 q87 38 90 136q-23 -13 -41 -13q-40 0 -67 47t-27 111z" />
<glyph unicode="&#x201e;" horiz-adv-x="524" d="M14 158q0 66 31 107.5t78 41.5q46 0 77 -40.5t31 -110.5q0 -58 -22 -133t-62 -133t-81 -58l-9 45q87 38 93 135q-21 -12 -41 -12q-43 0 -69 47t-26 111zM295 158q0 64 31 106.5t80 42.5t79.5 -43.5t30.5 -107.5q0 -59 -22 -133.5t-62.5 -132.5t-83.5 -58l-8 45 q87 38 90 135q-21 -12 -41 -12q-41 0 -67.5 46t-26.5 112z" />
<glyph unicode="&#x2022;" horiz-adv-x="1185" d="M227 723q0 126 103.5 216.5t249.5 90.5q147 0 254.5 -90.5t107.5 -216.5q0 -129 -108 -223t-254 -94t-249.5 93.5t-103.5 223.5z" />
<glyph unicode="&#x2026;" horiz-adv-x="921" d="M43 154q0 56 31 103.5t78 47.5q51 0 79.5 -46t28.5 -105q0 -62 -31 -108t-77 -46q-48 0 -78.5 46t-30.5 108zM350 154q0 57 30.5 104t78.5 47t78 -46.5t30 -104.5q0 -62 -31 -108t-77 -46q-48 0 -78.5 46t-30.5 108zM657 154q0 57 30.5 104t78.5 47t78 -46.5t30 -104.5 q0 -62 -31 -108t-77 -46q-48 0 -78.5 46t-30.5 108z" />
<glyph unicode="&#x202f;" horiz-adv-x="377" />
<glyph unicode="&#x2039;" horiz-adv-x="526" d="M94 621v135l357 186v-143l-234 -107l234 -110v-138z" />
<glyph unicode="&#x205f;" horiz-adv-x="472" />
<glyph unicode="&#x20ac;" horiz-adv-x="933" d="M41 596l16 92h70v164h-86l16 88h72q6 138 32.5 249t74.5 197t125.5 132.5t179.5 46.5q203 0 299 -131l-47 -119q-62 76 -120.5 114.5t-137.5 38.5q-105 0 -162 -139.5t-68 -388.5h432l-35 -88h-399v-164h336l-37 -92h-297q2 -97 9 -172t23 -143t41 -112t64.5 -69.5 t92.5 -25.5q75 0 126 49.5t76 128.5h56q-8 -112 -78 -193.5t-172 -81.5q-204 0 -298.5 148.5t-113.5 470.5h-90z" />
<glyph unicode="&#x2122;" horiz-adv-x="1703" d="M47 1436l31 235q47 -8 94 -8h391q49 0 101 8v-233l-48 -4q-12 161 -153 161q-41 0 -41 -24v-469q0 -82 108 -82v-51h-337v51q110 0 110 82v469q0 31 -43 31q-121 0 -162 -177zM778 1612v51h228l198 -500l191 500h223v-51q-86 0 -86 -51v-471q0 -70 94 -70v-51h-307v51 q80 0 80 63v420l-199 -534h-41l-215 528v-397q0 -80 100 -80v-51h-264v51q96 0 99 86v455q0 51 -101 51z" />
<glyph unicode="&#xe000;" horiz-adv-x="1024" d="M0 0v1024h1024v-1024h-1024z" />
<glyph unicode="&#xfb01;" horiz-adv-x="776" d="M-6 924v96h100v330q0 94 21.5 160.5t63.5 104.5t96 54.5t126 16.5q114 0 179 -80t65 -193q0 -76 -32.5 -116t-82.5 -40q-47 0 -76.5 36.5t-29.5 92.5q0 64 21 100t73 46q-7 30 -47.5 53t-75.5 23q-57 0 -107 -60t-50 -178v-350h424q-9 -76 -9 -283v-372q0 -68 0.5 -108 t3.5 -73.5t7 -48t13 -25t18.5 -12.5t27.5 -2h14v-96h-327v96h24q47 0 56.5 37.5t9.5 231.5v268q0 129 -6.5 188.5t-21.5 81t-48 21.5h-188q0 -582 14 -706q10 -99 42 -116q11 -6 32 -6h32v-96h-356v96q40 0 55 23q28 42 35 251q4 144 4 554h-100z" />
<glyph unicode="&#xfb02;" horiz-adv-x="825" d="M-6 924v96h100q0 86 -30.5 214t-30.5 173q0 148 60 213.5t171 65.5q90 0 139.5 -79.5t49.5 -193.5q0 -75 -32.5 -115.5t-80.5 -40.5q-49 0 -79 36.5t-30 92.5q0 63 21.5 99.5t73.5 46.5q-9 37 -23.5 56.5t-44.5 19.5q-98 0 -98 -193q0 -40 19.5 -102.5t39 -139.5 t19.5 -153h172v-96h-174q0 -582 14 -706q10 -99 42 -116q11 -6 32 -6h32v-96h-356v96q40 0 55 23q28 42 35 251q4 144 4 554h-100zM467 0v96q75 0 78 66q10 358 10 633q0 243 -10 708q-5 42 -16 54t-46 12q-14 0 -16 -2v96h254q-8 -425 -8 -940q0 -88 3.5 -276t4.5 -287 q6 -40 18.5 -52t55.5 -12v-96h-328z" />
<glyph unicode="&#xfb03;" horiz-adv-x="1308" d="M-6 924v96h100q0 86 -30.5 214t-30.5 173q0 148 60 213.5t171 65.5q90 0 139.5 -79.5t49.5 -193.5q0 -75 -32.5 -115.5t-80.5 -40.5q-49 0 -79 36.5t-30 92.5q0 63 21.5 99.5t73.5 46.5q-9 37 -23.5 56.5t-44.5 19.5q-98 0 -98 -193q0 -40 19.5 -102.5t39 -139.5 t19.5 -153h254v330q0 182 81 259t226 77q113 0 179 -80.5t66 -192.5q0 -75 -33 -115.5t-81 -40.5q-47 0 -78 36.5t-31 92.5q0 127 94 146q-6 30 -45.5 53t-74.5 23q-58 0 -108 -60t-50 -178v-350h424q-10 -85 -10 -283v-372q0 -67 0.5 -107.5t4 -73.5t7.5 -48.5t13 -25.5 t18.5 -12t27.5 -2h15v-96h-328v96h25q46 0 54.5 37t8.5 232v268q0 100 -2.5 152t-11 86t-22.5 43.5t-40 9.5h-186q0 -589 15 -714q11 -94 42 -109q11 -5 29 -5h35v-96h-357v96q39 0 54 23q28 45 35 269q4 150 4 536h-256q0 -582 14 -706q10 -99 42 -116q11 -6 32 -6h32v-96 h-356v96q40 0 55 23q28 42 35 251q4 144 4 554h-100z" />
<glyph unicode="&#xfb04;" horiz-adv-x="1282" d="M-6 924v96h100q0 86 -30.5 214t-30.5 173q0 148 60 213.5t171 65.5q90 0 139.5 -79.5t49.5 -193.5q0 -75 -32.5 -115.5t-80.5 -40.5q-49 0 -79 36.5t-30 92.5q0 63 21.5 99.5t73.5 46.5q-9 37 -23.5 56.5t-44.5 19.5q-98 0 -98 -193q0 -40 19.5 -102.5t39 -139.5 t19.5 -153h327q0 86 -30.5 214t-30.5 173q0 279 231 279q90 0 140.5 -80t50.5 -193q0 -75 -33.5 -115.5t-81.5 -40.5q-49 0 -79 36.5t-30 92.5q0 63 21.5 99.5t73.5 46.5q-14 76 -66 76q-98 0 -98 -193q0 -40 19.5 -102.5t39 -139.5t19.5 -153h172v-96h-174q0 -589 15 -714 q11 -94 42 -109q11 -5 29 -5h34v-96h-358v96q40 0 55 23q28 42 35 251q4 142 4 554h-329q0 -582 14 -706q10 -99 42 -116q11 -6 32 -6h32v-96h-356v96q40 0 55 23q28 42 35 251q4 144 4 554h-100zM924 0v96q71 0 77 66q9 323 9 633q0 290 -9 708q-6 41 -17.5 53.5 t-43.5 12.5q-14 0 -16 -2v96h254q-11 -585 -11 -940q0 -84 5 -270t6 -293q5 -41 16.5 -52.5t56.5 -11.5v-96h-327z" />
</font>
</defs>
</svg>
